Welcome Guest ( Log In | Register )

> И неформату есть предел.

Рэп/хип-хоп/шансон/поп удаляются. Для них есть свои порталы.

> Louna - Полюса (2018), Alternative Rock (D4)
post May 23 2018, 06:40:18
Post #1

Правь статус, ####!111
**************
Group: Металариец
Posts: 32,316
Releases: 486
On Forums: 9 years 3 weeks
Thanks: 24730 time(s)
Russian Federation


(IMG:http://metalarea.org/images/audiocovers/2018_May/acov_tid306273_thumb.jpg)

*Artist: Louna
*Album: Полюса
*Year: 2018
*Genre: Alternative Rock
*Country: Russian Federation (IMG:http://metalarea.org/forum/style_images/flags/Russian%20Federation.png)
*Format: mp3@CBR320kbps
*Size: 134MB

Tracklist:
01. Полюса
02. Лопасти
03. Огня
04. Искусство
05. Молодым
06. Включай!
07. Так
08. Вечное
09. Зверь
10. Шум
11. Другие
12. Колыбельная
13. Выбор
14. Пять
******************************
Total playing time: 58:56

Preview 1

Technical info
(IMG:http://metalarea.org/images/spectrogram/2018_May/fa9b294ca839278f567fcf675ab31e0b.png)
Input File: 01 Полюса.mp3
Channels : 2
Sample Rate : 44100
Precision : 16-bit
Duration : 00:05:16.76 = 13969248 samples = 23757.2 CDDA sectors
File Size : 12.7M
Bit Rate : 320k
Sample Encoding: MPEG audio (layer I, II or III)
Comments :
Title=Ïîëþñà
Artist=Louna
Album=Ïîëþñà
Tracknumber=1
Year=2018
Genre=Alternative Rock



Register


Thanks:
Go to the top of the page
  Insert nick Quick quote
+Quote Post
 
Start new topic
Replies (1 - 6)
post May 23 2018, 14:43:49
Post #2

Правь статус, ####!111
**************
Group: Металариец
Posts: 32,316
Releases: 486
On Forums: 9 years 3 weeks
Thanks: 24730 time(s)
Russian Federation


Aresson Если отважишься таки слушать, готовься к тому, что тексты здесь просто (IMG:style_emoticons/default/hung.gif)
Go to the top of the page
  Insert nick Quick quote
+Quote Post
post May 23 2018, 15:36:37
Post #3

Котеги! Нравяцо котеги?
**************
Group: Металариец
Posts: 4,613
Releases: 0
From: Терра Инкогнита
On Forums: 8 years 3 weeks
Thanks: 1554 time(s)
Russian Federation


Когда дойдёт очередь. Тексты пох мне (IMG:style_emoticons/default/1488.gif)
Go to the top of the page
  Insert nick Quick quote
+Quote Post
post May 23 2018, 18:59:42
Post #4

Правь статус, ####!111
**************
Group: Металариец
Posts: 32,316
Releases: 486
On Forums: 9 years 3 weeks
Thanks: 24730 time(s)
Russian Federation


@320

Register


Thanks:
Go to the top of the page
  Insert nick Quick quote
+Quote Post
post May 24 2018, 06:13:41
Post #5

Правь статус, ####!111
**************
Group: Металариец
Posts: 32,316
Releases: 486
On Forums: 9 years 3 weeks
Thanks: 24730 time(s)
Russian Federation


ЦИТАТА(albatross @ May 24 2018, 09:00:13) *
так альбом уже месяц назад вышел тo


Но здесь то его не было!
Go to the top of the page
  Insert nick Quick quote
+Quote Post
post May 24 2018, 07:44:49
Post #6

Семь Литров
*******
Group: Металариец
Posts: 778
Releases: 0
From: Харьков
On Forums: 10 years 3 months
Thanks: 564 time(s)
Ukraine


ЦИТАТА(vosmidesijatye @ May 23 2018, 16:43:49) *
Aresson Если отважишься таки слушать, готовься к тому, что тексты здесь просто (IMG:style_emoticons/default/hung.gif)

Треклист напоминает шансон (IMG:style_emoticons/default/1488.gif)
Go to the top of the page
  Insert nick Quick quote
+Quote Post
post May 24 2018, 08:15:22
Post #7

Правь статус, ####!111
**************
Group: Металариец
Posts: 32,316
Releases: 486
On Forums: 9 years 3 weeks
Thanks: 24730 time(s)
Russian Federation


ЦИТАТА(Nattfodd @ May 24 2018, 10:44:49) *
Треклист напоминает шансон (IMG:style_emoticons/default/1488.gif)


Но в маршрутке ты этот релиз не услышишь точно. Всё же лирическая составляющая здесь не зэковская. Правда, лучше от этого она не становится. (IMG:style_emoticons/default/1488.gif)
Go to the top of the page
  Insert nick Quick quote
+Quote Post

Reply to this topicStart new topic
1 User(s) are reading this topic (1 Guests and 0 Anonymous Users)
0 Members:

 



- Lo-Fi Version Support form
Copyrights and abuse reports form
Time is now: 23rd June 2018 - 18:40:08