Welcome Guest ( Log In | Register )

> И неформату есть предел.

Рэп/хип-хоп/шансон/поп удаляются. Для них есть свои порталы.

> Neverlur - Op Under Fjeldet Toner En Lur [ep] (2017), Dungeon Synth/Dark Ambient
post May 23 2018, 14:45:57
Post #1

Правь статус, ####!616
**************
Group: Металариец
Posts: 4,407
Releases: 3006
From: 55°35’N 38°08’E
On Forums: 10 years 3 months
Thanks: 56626 time(s)
Unknown


(IMG:http://metalarea.org/images/audiocovers/2018_May/acov_tid306286_thumb.jpg)

*Artist: Neverlur
*Album: Op Under Fjeldet Toner En Lur [ep]
*Year: 2017
*Genre: Dungeon Synth/Dark Ambient
*Country: Canada (IMG:http://metalarea.org/forum/style_images/flags/Canada.png)
*Format: mp3@CBR320kbps
*Size: 48MB

Tracklist:
1.Fjellets svarte røtter 05:46
2.Taarnet i den dype Skogen 04:57
3.Op under Fjeldet toner en Lur 04:26
4.Stillhet... 03:50
******************************
Total playing time: 18:59




Technical info
(IMG:http://metalarea.org/images/spectrogram/2018_May/1ef086c19b74178774ebc71868ae7eda.png)
Input File: 01 Fjellets svarte r?tter.mp3
Channels : 2
Sample Rate : 44100
Precision : 16-bit
Duration : 00:05:46.11 = 15263231 samples = 25957.9 CDDA sectors
File Size : 13.9M
Bit Rate : 322k
Sample Encoding: MPEG audio (layer I, II or III)
Comments :
Title=Fjellets svarte rГёtter
Artist=Neverlur
Album=Op under Fjeldet toner en Lur
Tracknumber=1
Year=2017
Genre=Ambient



Register


Thanks:
Go to the top of the page
  Insert nick Quick quote
+Quote Post
 
Start new topic
Replies (1 - 1)
post Jun 7 2018, 12:40:58
Post #2

Четыре Литра
****
Group: Металариец
Posts: 300
Releases: 0
On Forums: 11 months 3 weeks
Thanks: 115 time(s)
Unknown


Каноничный данж синт (IMG:style_emoticons/default/20.gif)
Go to the top of the page
  Insert nick Quick quote
+Quote Post

Reply to this topicStart new topic
2 User(s) are reading this topic (2 Guests and 0 Anonymous Users)
0 Members:

 



- Lo-Fi Version Support form
Copyrights and abuse reports form
Time is now: 16th October 2018 - 06:47:15