Welcome Guest ( Log In | Register )

> И неформату есть предел.

Рэп/хип-хоп/шансон/поп удаляются. Для них есть свои порталы.

 
Reply to this topicStart new topic
> Grimrik - Die Mauern Der Nacht (2015), Ambient
post May 23 2018, 18:18:27
Post #1

Правь статус, ####!616
**************
Group: Металариец
Posts: 4,398
Releases: 3004
From: 55°35’N 38°08’E
On Forums: 10 years 1 month
Thanks: 56374 time(s)
Unknown


(IMG:http://metalarea.org/images/audiocovers/2018_May/acov_tid306292_thumb.jpg)

*Artist: Grimrik
*Album: Die Mauern Der Nacht
*Year: 2015
*Genre: Ambient
*Country: Germany (IMG:http://metalarea.org/forum/style_images/flags/Germany.png)
*Format: mp3@CBR320kbps
*Size: 101MB

Tracklist:
1.Chapter I - Auf in eine neue Dimension 15:04
2.Chapter II - Die Mauern der Nacht 16:18
3.Chapter III - Hinter den Mauern der Nacht 12:42
******************************
Total playing time: 44:04



Extended info
Grimrik - Everything
(Dysterwald, Skurgoth, Arath, Eternäl Fröst, Nasgûl)


Technical info
(IMG:http://metalarea.org/images/spectrogram/2018_May/c4c30d2e850e891a10b7d62f64c13f41.png)
Input File: 01 Chapter I - Auf in eine neue Dimension.mp3
Channels : 2
Sample Rate : 44100
Precision : 16-bit
Duration : 00:15:04.16 = 39873412 samples = 67811.9 CDDA sectors
File Size : 36.3M
Bit Rate : 321k
Sample Encoding: MPEG audio (layer I, II or III)
Comments :
Title=I - Auf in eine neue Dimension
Artist=GRIMRIK
Album=Die Mauern der Nacht
Tracknumber=1
Year=2015
Genre=Ambient



Register


Go to the top of the page
  Insert nick Quick quote
+Quote Post

Reply to this topicStart new topic
1 User(s) are reading this topic (1 Guests and 0 Anonymous Users)
0 Members:

 



- Lo-Fi Version Support form
Copyrights and abuse reports form
Time is now: 20th August 2018 - 04:23:53