Welcome Guest ( Log In | Register )

> Templomayor - Eternidad Azteca (2017), Melodic Power Metal
post May 24 2018, 10:42:44
Post #1

Serial Uploader
Group Icon
Group: V.I.P
Posts: 33,058
Releases: 31341
From: Lithuania
On Forums: 10 years 3 months
Thanks: 358564 time(s)
Lithuania


(IMG:https://metalarea.org/images/audiocovers/2018_May/acov_tid306310_thumb.jpg)

*Artist: Templomayor
*Album: Eternidad Azteca
*Year: 2017
*Genre: Melodic Power Metal
*Country: Brazil (IMG:https://metalarea.org/forum/style_images/flags/Brazil.png)
*Format: mp3@CBR320kbps
*Size: 92MB

Tracklist:
01. Mexicas 00:57
02. Rise Of Tenochtitlan 05:07
03. Tribute Or Death 03:58
04. Sacrifice For The Sun 05:18
05. Jaguar Warrior 04:58
06. The Fall Of Moctezuma 05:45
07. Under The Light Of Sun 04:11
08. Arriba Tenochtitlan 05:07
09. Tribute Or Death 03:58
******************************
Total playing time: 39:19



Technical info
(IMG:https://metalarea.org/images/spectrogram/2018_May/0eeab8011127f1ab040e8078f166ec32.png)
Input File: 02. Rise of Tenochtitlan.mp3
Channels : 2
Sample Rate : 44100
Precision : 16-bit
Duration : 00:05:07.23 = 13548755 samples = 23042.1 CDDA sectors
File Size : 12.5M
Bit Rate : 326k
Sample Encoding: MPEG audio (layer I, II or III)
Comments :
Title=Rise of Tenochtitlan
Artist=Templomayor
Album=Eternidad Azteca
Tracknumber=2/9
Year=2017



Register


Go to the top of the page
  Insert nick Quick quote
+Quote Post
 
Start new topic
Replies (1 - 2)
post May 24 2018, 16:11:46
Post #2

MDM-Thrash Metal
**************
Group: Металариец
Posts: 7,061
Releases: 412
From: Одесса
On Forums: 11 years 1 month
Thanks: 13440 time(s)
Ukraine


Register


https://www.youtube.com/watch?v=oh75W_qYfeQ Templomayor - Sacrifice For The Sun (Lyric Video)


Thanks:
(1) ace73pq,
Go to the top of the page
  Insert nick Quick quote
+Quote Post
post May 25 2018, 10:17:19
Post #3

hearer & reader
**************
Group: Металариец
Posts: 6,850
Releases: 86
From: Moscow
On Forums: 11 years 1 week
Thanks: 6614 time(s)
Russian Federation




уж больно избито и сладенько
Go to the top of the page
  Insert nick Quick quote
+Quote Post

Reply to this topicStart new topic
2 User(s) are reading this topic (2 Guests and 0 Anonymous Users)
0 Members:

 



- Lo-Fi Version Support form
Copyrights and abuse reports form
Time is now: 20th September 2018 - 01:06:25