Welcome Guest ( Log In | Register )

> Releases Upload / Добавление релизов

Добавить релиз тут / Click here to add release
Рекомендованные обменники / Recommended file shares

> Kanseil - Fulìsche (2018), Folk Metal
post May 24 2018, 12:38:09
Post #1

Serial Uploader
Group Icon
Group: V.I.P
Posts: 32,736
Releases: 31034
From: Lithuania
On Forums: 10 years 2 weeks
Thanks: 355778 time(s)
Lithuania


(IMG:https://metalarea.org/images/audiocovers/2018_May/acov_tid306320_thumb.jpg)

*Artist: Kanseil
*Album: Fulìsche
*Year: 2018
*Genre: Folk Metal
*Country: Italy (IMG:https://metalarea.org/forum/style_images/flags/Italy.png)
*Format: mp3@CBR320kbps
*Size: 108MB

Tracklist:
01. Ah, Canseja! 01:11
02. La Battaglia Del Solstizio 05:11
03. Ander De Le Mate 04:53
04. Pojat 05:23
05. Orcolat 08:28
06. Serravalle 04:06
07. Vallòrch 04:48
08. Il Lungo Viaggio 04:57
09. Densilòc 05:55
******************************
Total playing time: 44:52





(IMG:https://metalarea.org/images/youtube.png)

Technical info
(IMG:https://metalarea.org/images/spectrogram/2018_May/8ab450fe897c29d2728490a96fa8f19f.png)
Input File: 02. La Battaglia del Solstizio.mp3
Channels : 2
Sample Rate : 44100
Precision : 16-bit
Duration : 00:00:00.31 = 13671 samples = 23.25 CDDA sectors
File Size : 13.0M
Bit Rate : 336M
Sample Encoding: MPEG audio (layer I, II or III)
Comments :
Title=La Battaglia del Solstizio
Artist=Kanseil
Album=Fulìsche
Tracknumber=2/9
Year=2018
Genre=Metal
Discnumber=1/1



Register


Go to the top of the page
  Insert nick Quick quote
+Quote Post
 
Start new topic
Replies (1 - 2)
post May 24 2018, 14:56:33
Post #2

MDM-Thrash Metal
**************
Group: Металариец
Posts: 6,809
Releases: 412
From: Одесса
On Forums: 10 years 10 months
Thanks: 12977 time(s)
Ukraine


Register


Thanks:
Go to the top of the page
  Insert nick Quick quote
+Quote Post
post May 26 2018, 11:27:24
Post #3

Девять Литров
*********
Group: Металариец
Posts: 964
Releases: 0
On Forums: 9 years 3 months
Thanks: 333 time(s)
Antarctica


Можно послушать без фанатизма.
Go to the top of the page
  Insert nick Quick quote
+Quote Post

Reply to this topicStart new topic
2 User(s) are reading this topic (2 Guests and 0 Anonymous Users)
0 Members:

 



- Lo-Fi Version Support form
Copyrights and abuse reports form
Time is now: 23rd June 2018 - 22:39:02