Welcome Guest ( Log In | Register )

> Releases Upload / Добавление релизов

Добавить релиз тут / Click here to add release
Рекомендованные обменники / Recommended file shares

> Monument - Hellhound (2018), Heavy Metal (D12)
post May 24 2018, 13:29:34
Post #1

Serial Uploader
Group Icon
Group: V.I.P
Posts: 32,736
Releases: 31034
From: Lithuania
On Forums: 10 years 2 weeks
Thanks: 355747 time(s)
Lithuania


(IMG:https://metalarea.org/images/audiocovers/2018_May/acov_tid306326_thumb.jpg)

*Artist: Monument
*Album: Hellhound
*Year: 2018
*Genre: Heavy Metal
*Country: United Kingdom (IMG:https://metalarea.org/forum/style_images/flags/United%20Kingdom.png)
*Format: mp3@CBR320kbps
*Size: 136MB

Tracklist:
01. William Kidd 04:28
02. The Chalice 04:22
03. Death Avenue 03:55
04. Nightrider 04:50
05. Hellhound 04:23
06. Wheels Of Steel 04:36
07. The End 05:17
08. Attila 04:54
09. Straight Through The Heart 05:04
10. Creatures Of The Night (Bonus Track) 05:33
11. Long Live Rock 'N' Roll (Rainbow Cover) (Bonus Track) 03:57
12. Deja Vu (Iron Maiden Cover) (Bonus Track) 05:00
******************************
Total playing time: 56:19



(IMG:https://metalarea.org/images/youtube.png)

Technical info
(IMG:https://metalarea.org/images/spectrogram/2018_May/3d9ea503a22429f74f3076763a8714e4.png)
Input File: 02. The Chalice.mp3
Channels : 2
Sample Rate : 44100
Precision : 16-bit
Duration : 00:00:00.26 = 11554 samples = 19.6497 CDDA sectors
File Size : 10.9M
Bit Rate : 333M
Sample Encoding: MPEG audio (layer I, II or III)
Comments :
Title=The Chalice
Artist=Monument
Album=Hellhound
Tracknumber=2/12
Year=2018
Genre=Rock
Discnumber=1/1



Register


Go to the top of the page
  Insert nick Quick quote
+Quote Post
 
Start new topic
Replies (1 - 6)
post May 24 2018, 17:39:14
Post #2

Правь статус, ####!111
**************
Group: Металариец
Posts: 13,381
Releases: 9428
From: Г.Харьков
On Forums: 6 years 1 month
Thanks: 153932 time(s)
Unknown


Register


Thanks:
Go to the top of the page
  Insert nick Quick quote
+Quote Post
post May 24 2018, 17:39:59
Post #3

Наливай!
**************
Group: Металариец
Posts: 5,026
Releases: 27
From: Москва-Бибирево
On Forums: 10 years 3 months
Thanks: 2333 time(s)
Russian Federation


Помню даже нахваливал Англичан Monument - Rock The Night [ep] (2012)
Go to the top of the page
  Insert nick Quick quote
+Quote Post
post May 25 2018, 09:29:13
Post #4

Маньяк
**********
Group: Металариец
Posts: 1,071
Releases: 0
From: Dnipro
On Forums: 9 years 11 months
Thanks: 276 time(s)
Ukraine


Реально ждал, предыдущий был огонь.
Go to the top of the page
  Insert nick Quick quote
+Quote Post
post May 25 2018, 21:11:08
Post #5

MDM-Thrash Metal
**************
Group: Металариец
Posts: 6,808
Releases: 412
From: Одесса
On Forums: 10 years 10 months
Thanks: 12973 time(s)
Ukraine






Первые 2 альбома поинтереснее на мой взгляд.
Go to the top of the page
  Insert nick Quick quote
+Quote Post
post Jun 11 2018, 15:53:45
Post #6

Наливай!
**************
Group: Металариец
Posts: 5,026
Releases: 27
From: Москва-Бибирево
On Forums: 10 years 3 months
Thanks: 2333 time(s)
Russian Federation


Неет уж ребята, так не надо делать. С первой же песни пошел адский копир Running Wild. Причем откровенный и без стеснения. А ведь как хорошо начинали. (IMG:style_emoticons/default/6.gif) /
А со следующей песни начался Iron Maiden как он есть.
Go to the top of the page
  Insert nick Quick quote
+Quote Post
post Jun 13 2018, 15:13:42
Post #7

Правь статус, ####!111
**************
Group: Металариец
Posts: 32,312
Releases: 486
On Forums: 9 years 2 weeks
Thanks: 24725 time(s)
Russian Federation


ЦИТАТА(SAPOGi @ Jun 11 2018, 18:53:45) *
Неет уж ребята, так не надо делать. С первой же песни пошел адский копир Running Wild. Причем откровенный и без стеснения. А ведь как хорошо начинали. (IMG:style_emoticons/default/6.gif) /
А со следующей песни начался Iron Maiden как он есть.


Так это же отлично. Если нет своих идей - то грамотно юзать чужие чем плохо? Тот же Седрик отлично демонстрирует силу старых РВ в новом прочтении.
Go to the top of the page
  Insert nick Quick quote
+Quote Post

Reply to this topicStart new topic
2 User(s) are reading this topic (2 Guests and 0 Anonymous Users)
0 Members:

 



- Lo-Fi Version Support form
Copyrights and abuse reports form
Time is now: 23rd June 2018 - 05:16:26