Welcome Guest ( Log In | Register )

> Snowy Shaw - White Is The New Black (2018), Heavy Metal
post May 24 2018, 13:45:45
Post #1

Serial Uploader
Group Icon
Group: V.I.P
Posts: 33,058
Releases: 31341
From: Lithuania
On Forums: 10 years 3 months
Thanks: 358564 time(s)
Lithuania


(IMG:https://metalarea.org/images/audiocovers/2018_May/acov_tid306328_thumb.jpg)

*Artist: Snowy Shaw
*Album: White Is The New Black
*Year: 2018
*Genre: Heavy Metal
*Country: Sweden (IMG:https://metalarea.org/forum/style_images/flags/Sweden.png)
*Format: mp3@CBR320kbps
*Size: 127MB

Tracklist:
01. Krampus
02. March Of The Black Dwarfs
03. Alcoholocaust
04. Wunderkind
05. Nachtgeist
06. Evil In Disgraceland
07. It's Getting Dark
08. Immortelle
09. My Religion (I Sold My Soul)
10. Evil Twin (I Don't Wanna
11. Family Feud
12. Gothicburg Bridge (Is This My Destiny?)
******************************
Total playing time: 53:56



Technical info
(IMG:https://metalarea.org/images/spectrogram/2018_May/f9a53caf403cd007f2d8c474674c27b2.png)
Input File: 02. March of the black dwarfs.mp3
Channels : 2
Sample Rate : 44100
Precision : 16-bit
Duration : 00:04:38.15 = 12266459 samples = 20861.3 CDDA sectors
File Size : 11.5M
Bit Rate : 330k
Sample Encoding: MPEG audio (layer I, II or III)
Comments :
Title=March of the black dwarfs
Artist=Snowy Shaw
Album=WHITE IS THE NEW BLACK
Tracknumber=2/12
Year=2018
Genre=Rock
Discnumber=1/1



Register


Go to the top of the page
  Insert nick Quick quote
+Quote Post
 
Start new topic
Replies (1 - 4)
post May 24 2018, 21:30:29
Post #2

MDM-Thrash Metal
**************
Group: Металариец
Posts: 7,061
Releases: 412
From: Одесса
On Forums: 11 years 1 month
Thanks: 13440 time(s)
Ukraine


Register


This post has been edited by Borderline1991: Jul 19 2018, 10:19:19


Go to the top of the page
  Insert nick Quick quote
+Quote Post
post May 24 2018, 21:32:45
Post #3

Ёлд ХеллоВяйне
Group Icon
Group: V.I.P
Posts: 25,989
Releases: 130
From: Питер
On Forums: 11 years 10 months
Thanks: 14371 time(s)
Russian Federation


Go to the top of the page
  Insert nick Quick quote
+Quote Post
post May 24 2018, 21:40:05
Post #4

Правь статус, ####!111
**************
Group: Металариец
Posts: 2,546
Releases: 0
From: Одесса
On Forums: 10 years 6 months
Thanks: 949 time(s)
Ukraine


Heavy Metal? and even more extreme than last Ihsahn release (IMG:style_emoticons/default/10.gif)


Thanks:
Go to the top of the page
  Insert nick Quick quote
+Quote Post
post May 25 2018, 13:31:34
Post #5

hearer & reader
**************
Group: Металариец
Posts: 6,850
Releases: 86
From: Moscow
On Forums: 11 years 1 week
Thanks: 6614 time(s)
Russian Federation


А что в треклисте?
правильно "12. Gothicburg Bridge / Is This My Destiny?"
А #10?

LE содержит ещё пару бонусов:
Be Kind to Animals or I'll Kill You
Family Feud (..?)
Go to the top of the page
  Insert nick Quick quote
+Quote Post

Reply to this topicStart new topic
2 User(s) are reading this topic (2 Guests and 0 Anonymous Users)
0 Members:

 



- Lo-Fi Version Support form
Copyrights and abuse reports form
Time is now: 20th September 2018 - 01:25:38