Welcome Guest ( Log In | Register )

> Unflesh - Savior (2018), Technical Melodic Death Metal
post May 24 2018, 14:52:12
Post #1

Правь статус, ####!111
**************
Group: Металариец
Posts: 14,311
Releases: 9925
From: Г.Харьков
On Forums: 6 years 4 months
Thanks: 162878 time(s)
Unknown


(IMG:https://metalarea.org/images/audiocovers/2018_May/acov_tid306338_thumb.jpg)

*Artist: Unflesh
*Album: Savior
*Year: 2018
*Genre: Technical Melodic Death Metal
*Country: United States (IMG:https://metalarea.org/forum/style_images/flags/United%20States.png)
*Format: mp3@CBR320kbps
*Size: 99MB

Tracklist:
1. Savior 05:04
2. Bestowal of Decay 04:57
3. Final Writhe 05:13
4. Erosive Devotees 05:22
5. The Eradication Commenced 05:13
6. Caliginous 05:15
7. Desecration of Light 04:26
8. Disintegration God 05:33
******************************
Total playing time: 41:03




Extended info
Ryan Beevers Vocals, Guitars, Bass (2014-present)
See also: Solium Fatalis
Peter de Reyna Bass (2016-present)
See also: Seven Spires, ex-Rithiya Henry Khiev (live)
Chris Dovas Drums (2016-present)
See also: Seven Spires (live), Sonic Pulse (live), ex-FirstBourne, ex-Aversed (live), ex-Rithiya Henry Khiev (live)
Chris Gardino Guitars (2018-present)
See also: Pathogenic


Technical info
(IMG:https://metalarea.org/images/spectrogram/2018_May/ff202fad8e8e6763d487b4e8f28f5c51.png)
Input File: 03 Final Writhe.mp3
Channels : 2
Sample Rate : 44100
Precision : 16-bit
Duration : 00:05:13.42 = 13821822 samples = 23506.5 CDDA sectors
File Size : 13.2M
Bit Rate : 336k
Sample Encoding: MPEG audio (layer I, II or III)
Comments :
Title=Final Writhe
Artist=Unflesh
Album=Savior
Tracknumber=3/8
Year=2018
Genre=Alternative
Discnumber=1/1



Register


Go to the top of the page
  Insert nick Quick quote
+Quote Post
 
Start new topic
Replies (1 - 6)
post May 24 2018, 17:54:57
Post #2

Правь статус, ####!111
**************
Group: Металариец
Posts: 14,311
Releases: 9925
From: Г.Харьков
On Forums: 6 years 4 months
Thanks: 162878 time(s)
Unknown


Register


Go to the top of the page
  Insert nick Quick quote
+Quote Post
post May 24 2018, 18:16:40
Post #3

Group: Дух
Posts: 4
Releases: 0
On Forums: 5 months 3 weeks
Thanks: 0 time(s)
Denmark


Thanks!
Go to the top of the page
  Insert nick Quick quote
+Quote Post
post May 25 2018, 12:26:07
Post #4

Ъ
**************
Group: Металариец
Posts: 9,172
Releases: 9
On Forums: 9 years 8 months
Thanks: 1752 time(s)
Sweden


Только вчера гонял Alegaeon, в сравнении - сабж вялый третьесорт, хотя может фанатам жанра и понравится.
Go to the top of the page
  Insert nick Quick quote
+Quote Post
post Jun 6 2018, 18:20:09
Post #5

Schuldinerist
**************
Group: Металариец
Posts: 9,829
Releases: 33
From:
On Forums: 11 years 5 months
Thanks: 5976 time(s)
Russian Federation


Фанатам жанра нравится. Довольно не плохой бодрый техно-дэт. Мелодик-составляющая ухо не режет.
8+/10


Go to the top of the page
  Insert nick Quick quote
+Quote Post
post Jun 6 2018, 20:12:25
Post #6

MDM-Thrash Metal
**************
Group: Металариец
Posts: 7,070
Releases: 412
From: Одесса
On Forums: 11 years 1 month
Thanks: 13456 time(s)
Ukraine


ЦИТАТА(Язва @ Jun 6 2018, 20:20:09) *
Фанатам жанра нравится. Довольно не плохой бодрый техно-дэт.

Вот на счет техно-дета - да, соглашусь. А вот мелодеза как то уж совсем маловато будет.
Go to the top of the page
  Insert nick Quick quote
+Quote Post
post Jun 12 2018, 15:31:41
Post #7

Аполітичний
**************
Group: Металариец
Posts: 5,189
Releases: 143
From: Тимчасово окупована територія - Юзівка
On Forums: 10 years 1 month
Thanks: 5403 time(s)
Ukraine


ЦИТАТА(Andrew @ Jun 6 2018, 22:12:25) *
Вот на счет техно-дета - да, соглашусь. А вот мелодеза как то уж совсем маловато будет.


Вот и здорово! (IMG:style_emoticons/default/1488.gif)
Go to the top of the page
  Insert nick Quick quote
+Quote Post

Reply to this topicStart new topic
1 User(s) are reading this topic (1 Guests and 0 Anonymous Users)
0 Members:

 



- Lo-Fi Version Support form
Copyrights and abuse reports form
Time is now: 24th September 2018 - 01:01:59