Welcome Guest ( Log In | Register )

> Black Pestilence - Urban Hell Rhythmics (2018), Black Metal (D5)
post May 24 2018, 15:09:01
Post #1

Serial Uploader
Group Icon
Group: V.I.P
Posts: 33,135
Releases: 31419
From: Lithuania
On Forums: 10 years 4 months
Thanks: 359267 time(s)
Lithuania


(IMG:https://metalarea.org/images/audiocovers/2018_May/acov_tid306342_thumb.jpg)

*Artist: Black Pestilence
*Album: Urban Hell Rhythmics
*Year: 2018
*Genre: Black Metal
*Country: Canada (IMG:https://metalarea.org/forum/style_images/flags/Canada.png)
*Format: mp3@CBR320kbps
*Size: 74MB

Tracklist:
01. Artificial
02. D.I.Y. 666
03. Hymns For The Black Mass
04. Vertex
05. Back To The Underground
06. Digital Degeneration
07. Devil Of My Life
08. Deny The System
09. Countess Of Dominion
******************************
Total playing time: 32:12

(IMG:https://metalarea.org/images/myspace.png)


Technical info
(IMG:https://metalarea.org/images/spectrogram/2018_May/317e07402f06958e6c08e1cbf99c5ddd.png)
Input File: 02. D.I.Y. 666.mp3
Channels : 2
Sample Rate : 44100
Precision : 16-bit
Duration : 00:02:52.43 = 7604031 samples = 12932 CDDA sectors
File Size : 7.00M
Bit Rate : 325k
Sample Encoding: MPEG audio (layer I, II or III)
Comments :
Title=D.I.Y. 666
Artist=Black Pestilence
Album=Urban Hell Rhythmics
Tracknumber=2/9
Year=2018
Genre=9
Discnumber=1/1



Register


Go to the top of the page
  Insert nick Quick quote
+Quote Post
 
Start new topic
Replies (1 - 9)
post May 25 2018, 09:39:34
Post #2

Аполітичний
**************
Group: Металариец
Posts: 5,210
Releases: 143
From: Тимчасово окупована територія - Юзівка
On Forums: 10 years 1 month
Thanks: 5430 time(s)
Ukraine


Go to the top of the page
  Insert nick Quick quote
+Quote Post
post May 25 2018, 12:49:35
Post #3

Satan bless you!
**************
Group: Металариец
Posts: 3,275
Releases: 63
From: Москва
On Forums: 10 years 3 months
Thanks: 2826 time(s)
Russian Federation


Какой-то клоунский недоблэк


Thanks:
Go to the top of the page
  Insert nick Quick quote
+Quote Post
post May 25 2018, 13:22:15
Post #4

Let's Go Ducks!
**************
Group: Металариец
Posts: 2,278
Releases: 10
From: Khazad-dûm
On Forums: 10 years 9 months
Thanks: 1019 time(s)
Ukraine


Да это вообще не блек, панкота какая-то
Go to the top of the page
  Insert nick Quick quote
+Quote Post
post May 25 2018, 13:30:50
Post #5
BAN
Banned till
Oct 23 2018, 12:27:08



ЦИТАТА(suseka @ May 25 2018, 16:22:15) *
Да это вообще не блек, панкота какая-то


Так блэк и есть панк (с) Фо.


Thanks:
(1) krotovich,
Go to the top of the page
  Insert nick Quick quote
+Quote Post
post May 25 2018, 16:41:24
Post #6

Литр
*
Group: Подсевший
Posts: 74
Releases: 11
From: Croatia
On Forums: 12 years 7 months
Thanks: 638 time(s)
Croatia


this is some really shitty black n roll (IMG:style_emoticons/default/22.gif)
Go to the top of the page
  Insert nick Quick quote
+Quote Post
post May 25 2018, 17:06:05
Post #7

MDM-Thrash Metal
**************
Group: Металариец
Posts: 7,162
Releases: 421
From: Одесса
On Forums: 11 years 2 months
Thanks: 13651 time(s)
Ukraine


Register


Thanks:
Go to the top of the page
  Insert nick Quick quote
+Quote Post
post May 25 2018, 17:14:25
Post #8

Full-of-Hate
**************
Group: Металариец
Posts: 2,176
Releases: 0
On Forums: 9 years 3 months
Thanks: 1522 time(s)
Russian Federation


Унылая хренотятина.


Thanks:
(1) Paatddal,
Go to the top of the page
  Insert nick Quick quote
+Quote Post
post May 25 2018, 18:45:59
Post #9

Правь статус, ####!111
**************
Group: Металариец
Posts: 2,668
Releases: 0
From: Одесса
On Forums: 10 years 7 months
Thanks: 1060 time(s)
Ukraine


not even black and roll. it sounds like glam
Go to the top of the page
  Insert nick Quick quote
+Quote Post
post May 27 2018, 16:52:15
Post #10

Четыре Литра
****
Group: Металариец
Posts: 300
Releases: 0
On Forums: 11 months 3 weeks
Thanks: 116 time(s)
Unknown


Клоунада (IMG:style_emoticons/default/crazy.gif)
Go to the top of the page
  Insert nick Quick quote
+Quote Post

Reply to this topicStart new topic
2 User(s) are reading this topic (2 Guests and 0 Anonymous Users)
0 Members:

 



- Lo-Fi Version Support form
Copyrights and abuse reports form
Time is now: 19th October 2018 - 19:52:11