Welcome Guest ( Log In | Register )

> И неформату есть предел.

Рэп/хип-хоп/шансон/поп удаляются. Для них есть свои порталы.

> Jonathan Davis - Black Labyrinth (2018), Rock/Alternative Metal
post May 24 2018, 16:15:38
Post #1

Три Литра
***
Group: Завсегдатай
Posts: 216
Releases: 86
From: Helvetia
On Forums: 5 years 6 months
Thanks: 1358 time(s)
Switzerland


(IMG:https://metalarea.org/images/audiocovers/2018_May/acov_tid306353_thumb.jpg)

*Artist: Jonathan Davis
*Album: Black Labyrinth
*Year: 2018
*Genre: Rock/Alternative Metal
*Country: United States (IMG:https://metalarea.org/forum/style_images/flags/United%20States.png)
*Format: mp3@CBR320kbps
*Size: 118MB

Tracklist:
1. Underneath My Skin 3:46
2. Final Days 4:37
3. Everyone 2:53
4. Happiness 2:58
5. Your God 2:49
6. Walk On By 3:41
7. The Secret 3:31
8. Basic Needs 6:14
9. Medicate 3:57
10. Please Tell Me 4:28
11. What You Believe 4:05
12. Gender 3:27
13. What It Is 3:54
******************************
Total playing time: 50:20


(IMG:https://metalarea.org/images/youtube.png)

Extended info
Jonathan Davis had hinted at a solo album for a number of years, first working without his bandmates in Korn when he collaborated on the Queen of the Damned soundtrack. Word of a full solo album began to circulate in the mid-2000s when Davis began touring and writing with his solo band, Jonathan Davis and the SFA, with whom he released two live albums, Alone I Play (2007) and Live at the Union Chapel (2011). The SFA was disbanded after the death of guitarist Shane Gibson. Over the next decade, Davis would continue to write solo material while performing with Korn, and in January 2018 announced a North American and European tour in support of a new album that would come out later in the year. That same month, he released the song What It Is.

In March 2018, Sumerian Records revealed an official teaser for the album, which revealed the title, artwork and release date, along with snippets of each track on the album. While a full list of musicians has yet to be officially released, it has been confirmed that Ray Luzier, Wes Borland, Miles Mosley, Mike Dillon and Shenkar have all made appearances on the album.


Technical info
(IMG:https://metalarea.org/images/spectrogram/2018_May/e65a2ec06361fe5f28b889da5bbe3652.png)
Input File: 09 - Medicate.mp3
Channels : 2
Sample Rate : 44100
Precision : 16-bit
Duration : 00:03:57.37 = 10468193 samples = 17803 CDDA sectors
File Size : 9.77M
Bit Rate : 329k
Sample Encoding: MPEG audio (layer I, II or III)
Comments :
Title=Medicate
Artist=Jonathan Davis
Album=Black Labyrinth
Tracknumber=9/13
Year=2018
Genre=Rock
Discnumber=1/1



Register


Thanks:
Go to the top of the page
  Insert nick Quick quote
+Quote Post
 
Start new topic
Replies (1 - 1)
post May 25 2018, 08:23:22
Post #2

Правь статус, ####!111
**************
Group: Металариец
Posts: 33,482
Releases: 489
On Forums: 9 years 2 months
Thanks: 25520 time(s)
Russian Federation


Пупс из Корн наворотил кстати неплохой альбом. Приятная музыка. Хотя KOЯN лучше будет, конечно.
Go to the top of the page
  Insert nick Quick quote
+Quote Post

Reply to this topicStart new topic
1 User(s) are reading this topic (1 Guests and 0 Anonymous Users)
0 Members:

 



- Lo-Fi Version Support form
Copyrights and abuse reports form
Time is now: 16th August 2018 - 11:24:13