Welcome Guest ( Log In | Register )

> Black Spirit - In A Vortex To The Infinite Night [demo] (2018), Raw Black Metal
post May 25 2018, 03:30:52
Post #1

Правь статус, ####!111
**************
Group: Металариец
Posts: 3,815
Releases: 917
From: Brazil
On Forums: 7 years 6 months
Thanks: 33962 time(s)
Brazil


(IMG:https://metalarea.org/images/audiocovers/2018_May/acov_tid306373_thumb.png)

*Artist: Black Spirit
*Album: In A Vortex To The Infinite Night [demo]
*Year: 2018
*Genre: Raw Black Metal
*Country: Spain (IMG:https://metalarea.org/forum/style_images/flags/Spain.png)
*Format: mp3@CBR320kbps
*Size: 42MB

Tracklist:
1. On the Threshold of Unconsciousness 03:00
2. In Vortex to Infinite Blackness 04:48
3. A Terrifying Mystery Underlies 05:06
4. Night without Origin or End 03:26
******************************
Total playing time: 16:20

Extended info
Infinite Night Records


Tape-rip by toooooomb.blogspot


Technical info
(IMG:https://metalarea.org/images/spectrogram/2018_May/19faba4d81ddc4073a75f52930a684c8.png)
Input File: 01. On the Threshold of Unconsciousness.mp3
Channels : 2
Sample Rate : 44100
Precision : 16-bit
Duration : 00:03:04.05 = 8116561 samples = 13803.7 CDDA sectors
File Size : 7.36M
Bit Rate : 320k
Sample Encoding: MPEG audio (layer I, II or III)
Comments :
Title=On the Threshold of Unconsciousness
Artist=Black Spirit
Album=In a Vortex to the Infinite Night
Tracknumber=1/4
Year=2018
Genre=Black Metal



Register


Go to the top of the page
  Insert nick Quick quote
+Quote Post
 
Start new topic
Replies (1 - 1)
post Jul 23 2019, 19:16:56
Post #2

Group: Дух
Posts: 6
Releases: 0
On Forums: 7 years 2 months
Thanks: 0 time(s)
Angola


thanks!
Go to the top of the page
  Insert nick Quick quote
+Quote Post

Reply to this topicStart new topic
2 User(s) are reading this topic (2 Guests and 0 Anonymous Users)
0 Members:

 



- Lo-Fi Version Support form
Copyrights and abuse reports form
Time is now: 19th August 2019 - 06:45:47