Welcome Guest ( Log In | Register )

> И неформату есть предел.

Рэп/хип-хоп/шансон/поп удаляются. Для них есть свои порталы.

> Lunatic Soul - Under The Fragmented Sky (2018), Atmospheric Progressive Rock (D6)
post May 25 2018, 09:23:27
Post #1

21st Century Schizoid Man
**************
Group: Металариец
Posts: 5,150
Releases: 67
From: Moscow
On Forums: 10 years 1 month
Thanks: 4062 time(s)
Russian Federation


(IMG:http://metalarea.org/images/audiocovers/2018_May/acov_tid306379_thumb.jpg)

*Artist: Lunatic Soul
*Album: Under The Fragmented Sky
*Year: 2018
*Genre: Atmospheric Progressive Rock
*Country: Poland (IMG:http://metalarea.org/forum/style_images/flags/Poland.png)
*Format: mp3@CBR320kbps
*Size: 84MB

Tracklist:
01. He Av En 04:04
02. Trials 05:44
03. Sorrow 01:29
04. Under the Fragmented Sky 05:02
05. Shadows 04:30
06. Rinsing the Night 03:55
07. The Art of Repairing 07:54
08. Untamed 03:24
******************************
Total playing time: 36:02

(IMG:http://metalarea.org/images/youtube.png)
(IMG:http://metalarea.org/images/youtube.png)

Extended info
Line-up / Musicians
Mariusz Duda - vocals, acoustic guitar, bass & piccolo bass, keyboards, synth programming, percussion
Also:
Wawrzyniec Dramowicz (aka Vaaver) - drums (8)

Releases information
Label: Kscope
Format: CD, Digital, Vinyl (Clear)
May 25, 2018
Art: Jarek Kubicki


Technical info
(IMG:http://metalarea.org/images/spectrogram/2018_May/ed447920b782b764d7100cea926dbb30.png)
Input File: 01. He Av En.mp3
Channels : 2
Sample Rate : 44100
Precision : 16-bit
Duration : 00:04:03.85 = 10753873 samples = 18288.9 CDDA sectors
File Size : 9.83M
Bit Rate : 322k
Sample Encoding: MPEG audio (layer I, II or III)
Comments :
Title=He Av En
Artist=Lunatic Soul
Album=Under the Fragmented Sky
Tracknumber=01
Year=2018
Genre=Progressive Rock



Register


This post has been edited by Borderline1991: May 26 2018, 05:14:17


Go to the top of the page
  Insert nick Quick quote
+Quote Post
 
Start new topic
Replies (1 - 4)
post May 26 2018, 06:36:22
Post #2

к приему виски готов
******
Group: Металариец
Posts: 653
Releases: 2
From: Украина
On Forums: 9 years 3 months
Thanks: 385 time(s)
Ukraine


вот это нежданчик. Yarri - (IMG:style_emoticons/default/9.gif)


Thanks:
(1) Yarri,
Go to the top of the page
  Insert nick Quick quote
+Quote Post
post May 29 2018, 11:30:04
Post #3

Шесть Литров
******
Group: Металариец
Posts: 558
Releases: 0
From: Харьков
On Forums: 8 years 8 months
Thanks: 174 time(s)
Ukraine


Вот это я ждал, спасибо. Предыдущие два альбома были просто потрясными.
Go to the top of the page
  Insert nick Quick quote
+Quote Post
post Jun 1 2018, 10:56:44
Post #4

Шесть Литров
******
Group: Металариец
Posts: 558
Releases: 0
From: Харьков
On Forums: 8 years 8 months
Thanks: 174 time(s)
Ukraine


К сожалению, больше чем на набор ауттейков к "Fractured" (2017) сей релиз не претендует. Шедевров не обнаружено.
Go to the top of the page
  Insert nick Quick quote
+Quote Post
post Jun 7 2018, 15:52:03
Post #5

Group: Подсевший
Posts: 27
Releases: 3
From: Тула
On Forums: 9 months 3 weeks
Thanks: 89 time(s)
Russian Federation


Предыдущие были лучше. И вообще мне Riverside намного больше по душе. Вот.
Go to the top of the page
  Insert nick Quick quote
+Quote Post

Reply to this topicStart new topic
2 User(s) are reading this topic (2 Guests and 0 Anonymous Users)
0 Members:

 



- Lo-Fi Version Support form
Copyrights and abuse reports form
Time is now: 23rd June 2018 - 18:25:31