Welcome Guest ( Log In | Register )

 
Reply to this topicStart new topic
> Piranha - Piranha [demo] (1988), Thrash Metal
post May 25 2018, 10:21:30
Post #1

Подвал
**************
Group: Металариец
Posts: 12,436
Releases: 6993
From: Far East (Khabarovsk)
On Forums: 9 years 7 months
Thanks: 64560 time(s)
Russian Federation


(IMG:http://metalarea.org/images/audiocovers/2018_May/acov_tid306381_thumb.JPG)

*Artist: Piranha
*Album: Piranha [demo]
*Year: 1988
*Genre: Thrash Metal
*Country: United States (IMG:http://metalarea.org/forum/style_images/flags/United%20States.png)
*Format: mp3@CBR192kbps
*Size: 23MB

Tracklist:
1. Nursery Rhymes 04:48
2. Alone We Survive 04:03
3. Second Coming 03:50
4. Feeding Time 04:23
******************************
Total playing time: 17:04

Extended info
Legendary band from Berkeley, California.


Technical info
(IMG:http://metalarea.org/images/spectrogram/2018_May/39b3c03f6a197cfa1ef01a8d8e2f0da9.png)
Input File: 01-Nursery Rhymes.mp3
Channels : 2
Sample Rate : 44100
Precision : 16-bit
Duration : 00:04:48.36 = 12716764 samples = 21627.1 CDDA sectors
File Size : 6.92M
Bit Rate : 192k
Sample Encoding: MPEG audio (layer I, II or III)
Comments :
Title=Nursery Rhymes
Artist=Piranha (US, CA)
Album=Piranha (Demo)
Tracknumber=01
Year=1988
Genre=Thrash Metal



Register


Go to the top of the page
  Insert nick Quick quote
+Quote Post

Reply to this topicStart new topic
2 User(s) are reading this topic (2 Guests and 0 Anonymous Users)
0 Members:

 



- Lo-Fi Version Support form
Copyrights and abuse reports form
Time is now: 24th September 2018 - 21:35:15