Welcome Guest ( Log In | Register )

> Kiasma - Penetration Celebration [demo] (1995), Progressive Metal
post May 25 2018, 11:00:59
Post #1

Подвал
**************
Group: Металариец
Posts: 12,572
Releases: 7072
From: Far East (Khabarovsk)
On Forums: 9 years 8 months
Thanks: 65349 time(s)
Russian Federation


(IMG:http://metalarea.org/images/audiocovers/2018_May/acov_tid306384_thumb.jpg)

*Artist: Kiasma
*Album: Penetration Celebration [demo]
*Year: 1995
*Genre: Progressive Metal
*Country: Finland (IMG:http://metalarea.org/forum/style_images/flags/Finland.png)
*Format: mp3@CBR128kbps (IMG:http://metalarea.org/images/bit_low.gif)
*Size: 19MB

Tracklist:
1. Rain 05:31
2. Abstract Wandering 05:58
3. A Seed Lifted To Die 06:46
4. Piss On Peace 03:40
******************************
Total playing time: 21:55



Technical info
(IMG:http://metalarea.org/images/spectrogram/2018_May/d6a79cac44c3dca7a304ae0de21feafa.png)
Input File: 01-Rain.MP3
Channels : 2
Sample Rate : 44100
Precision : 16-bit
Duration : 00:05:31.96 = 14639392 samples = 24896.9 CDDA sectors
File Size : 5.31M
Bit Rate : 128k
Sample Encoding: MPEG audio (layer I, II or III)
Comments :
Title=Rain
Artist=Kiasma (Fin)
Album=Penetration Celebration (Demo)
Tracknumber=01
Year=1995
Genre=Metal



Register


Go to the top of the page
  Insert nick Quick quote
+Quote Post
 
Start new topic
Replies (1 - 1)
post May 27 2018, 04:54:20
Post #2

Семь Литров
*******
Group: Металариец
Posts: 704
Releases: 0
From: China
On Forums: 10 years 9 months
Thanks: 485 time(s)
Bulgaria


very good potent dark progressive metal bordering on doom at times; heavy stomping music, strictly classic-sounding, with a lot of atmosphere


Thanks:
Go to the top of the page
  Insert nick Quick quote
+Quote Post

Reply to this topicStart new topic
1 User(s) are reading this topic (1 Guests and 0 Anonymous Users)
0 Members:

 



- Lo-Fi Version Support form
Copyrights and abuse reports form
Time is now: 17th October 2018 - 05:51:52