Welcome Guest ( Log In | Register )

> Front Beast & Mournful Winter - Devoured By Darkness/Travel Through Eternity [split] (2018), Black Metal | Black Metal
post May 25 2018, 19:35:02
Post #1

Три Литра
***
Group: Завсегдатай
Posts: 224
Releases: 164
From: Bergen
On Forums: 8 years 11 months
Thanks: 4262 time(s)
Norway


(IMG:https://metalarea.org/images/audiocovers/2018_May/acov_tid306399_thumb.JPG)

*Artist: Front Beast & Mournful Winter
*Album: Devoured By Darkness/Travel Through Eternity [split]
*Year: 2018
*Genre: Black Metal | Black Metal
*Country: Germany (IMG:https://metalarea.org/forum/style_images/flags/Germany.png) | Germany (IMG:https://metalarea.org/forum/style_images/flags/Germany.png)
*Format: mp3@CBR320kbps
*Size: 45MB

Tracklist:
Front Beast:
1. Travel Through Eternity
Mournful Winter:
2. Devoured By Darkness
******************************
Total playing time: 14:07

Extended info
7" Split EP - 300 copies on black vinyl


Technical info
(IMG:https://metalarea.org/images/spectrogram/2018_May/7738a90a6b352f26cd3a0625974e38ea.png)
Input File: 01-Travel_Through_Eternity.mp3
Channels : 2
Sample Rate : 48000
Precision : 16-bit
Duration : 00:07:48.48 = 22487184 samples ~ 35136.2 CDDA sectors
File Size : 18.7M
Bit Rate : 320k
Sample Encoding: MPEG audio (layer I, II or III)
Comments :
Title=Travel Through Eternity
Artist=Front Beast
Album=Devoured by Darkness / Travel Through Eternity
Tracknumber=01/02
Year=2018
Genre=Black Metal



Register


Go to the top of the page
  Insert nick Quick quote
+Quote Post
 
Start new topic
Replies (1 - 2)
post May 27 2018, 16:51:02
Post #2

Четыре Литра
****
Group: Металариец
Posts: 354
Releases: 0
On Forums: 2 years 7 months
Thanks: 163 time(s)
Unknown


Front Beast продолжают радовать своим драйвовым притрэшованным блэком
Mournful Winter звучит более блекло, но в целом стоит послушать для ознакомления
Go to the top of the page
  Insert nick Quick quote
+Quote Post
post May 29 2018, 16:11:58
Post #3

De Mysteriis Dom Sathanas
**************
Group: Металариец
Posts: 3,944
Releases: 63
From: Doom
On Forums: 11 years 10 months
Thanks: 3350 time(s)
Russian Federation


ЦИТАТА(Incantatore @ May 27 2018, 18:51:02) *
Front Beast продолжают радовать своим драйвовым притрэшованным блэком
Mournful Winter звучит более блекло, но в целом стоит послушать для ознакомления

Здесь не совсем притрэшованно у Фронтов, но мне понравилось, а вторая средне, аналогии с Психонаутом, но вокал не дотягивает (IMG:style_emoticons/default/25.gif)
Go to the top of the page
  Insert nick Quick quote
+Quote Post

Reply to this topicStart new topic
1 User(s) are reading this topic (1 Guests and 0 Anonymous Users)
0 Members:

 



- Lo-Fi Version Support form
Copyrights and abuse reports form
Time is now: 26th May 2020 - 12:52:13