Welcome Guest ( Log In | Register )

> И неформату есть предел.

Рэп/хип-хоп/шансон/поп удаляются. Для них есть свои порталы.

> Swartalf - Candles Burning Blue (1997), Dark Ambient/Neoclassical/Industrial
post May 25 2018, 19:41:01
Post #1

ретроград
**************
Group: Металариец
Posts: 4,538
Releases: 176
On Forums: 11 years 3 months
Thanks: 6601 time(s)
Vatican City


(IMG:http://metalarea.org/images/audiocovers/2018_May/acov_tid306402_thumb.jpg)

*Artist: Swartalf
*Album: Candles Burning Blue
*Year: 1997
*Genre: Dark Ambient/Neoclassical/Industrial
*Country: Germany (IMG:http://metalarea.org/forum/style_images/flags/Germany.png)
*Format: mp3@CBR320kbps
*Size: 100MB

Tracklist:
1 Invocation 4:03
2 Nervengeist 11:24
3 The Shadow Gods 5:59
4 Leviathan Rising 12:19
5 Tears On Shutters 3:43
6 The Heart 4:43
******************************
Total playing time: 42:11

(IMG:http://metalarea.org/images/youtube.png)

Extended info
FLAC-rip


Technical info
(IMG:http://metalarea.org/images/spectrogram/2018_May/675233043e326332d2e226dd38162a75.png)
Input File: Swartalf - Candles Burning Blue - 05 - Tears on Shutters.mp3
Channels : 2
Sample Rate : 44100
Precision : 16-bit
Duration : 00:03:44.00 = 9878312 samples = 16799.9 CDDA sectors
File Size : 8.96M
Bit Rate : 320k
Sample Encoding: MPEG audio (layer I, II or III)
Comments :
Title=Tears on Shutters
Artist=Swartalf
Album=Candles Burning Blue
Tracknumber=05
Year=1996
Genre=Avantgarde



Register


Go to the top of the page
  Insert nick Quick quote
+Quote Post
 
Start new topic
Replies (1 - 2)
post May 27 2018, 21:03:09
Post #2

Шесть Литров
******
Group: Металариец
Posts: 510
Releases: 0
On Forums: 5 years 1 week
Thanks: 334 time(s)
Unknown


This is a superb record.

FLAC:
Register


Thanks:
Go to the top of the page
  Insert nick Quick quote
+Quote Post
post May 28 2018, 19:59:23
Post #3

0,5 минералки и шоколадка
**************
Group: Металариец
Posts: 2,815
Releases: 120
From: Karelia
On Forums: 9 years 5 months
Thanks: 3759 time(s)
NATO


отличный релиз!


Thanks:
(1) Kazoth,
Go to the top of the page
  Insert nick Quick quote
+Quote Post

Reply to this topicStart new topic
2 User(s) are reading this topic (2 Guests and 0 Anonymous Users)
0 Members:

 



- Lo-Fi Version Support form
Copyrights and abuse reports form
Time is now: 16th October 2018 - 06:34:57