Welcome Guest ( Log In | Register )

> И неформату есть предел.

Рэп/хип-хоп/шансон/поп удаляются. Для них есть свои порталы.

> Arena - Double Vision (2018), Neo-Progressive Rock (D10)
post May 26 2018, 14:42:57
Post #1

sequensolog
**********
Group: Металариец
Posts: 1,269
Releases: 14
On Forums: 5 months 1 day
Thanks: 447 time(s)
Russian Federation


(IMG:https://metalarea.org/images/audiocovers/2018_May/acov_tid306432_thumb.jpg)

*Artist: Arena
*Album: Double Vision
*Year: 2018
*Genre: Neo-Progressive Rock
*Country: United Kingdom (IMG:https://metalarea.org/forum/style_images/flags/United%20Kingdom.png)
*Format: mp3@CBR320kbps
*Size: 127MB

Tracklist:
1.Zhivago Wolf 04:48
2. The Mirror Lies 06:58
3. Scars 05:17
4. Paradise Of Thieves 05:10
5. Red Eyes 06:41
6. Poisoned 04:28
7. The Legend Of Elijah Shade 22:39
******************************
Total playing time: 56:01

Technical info
(IMG:https://metalarea.org/images/spectrogram/2018_May/df4a4115fb03b4fa28156c2ee697b478.png)
Input File: 02 - The Mirror Lies.mp3
Channels : 2
Sample Rate : 44100
Precision : 16-bit
Duration : 00:06:57.61 = 18416557 samples = 31320.7 CDDA sectors
File Size : 16.7M
Bit Rate : 320k
Sample Encoding: MPEG audio (layer I, II or III)
Comments :
Title=The Mirror Lies
Artist=Arena
Album=Double Vision
Tracknumber=2/7
Genre=Rock
Discnumber=1/1



Register


Go to the top of the page
  Insert nick Quick quote
+Quote Post
 
Start new topic
Replies (1 - 1)
post May 29 2018, 11:31:47
Post #2

Шесть Литров
******
Group: Металариец
Posts: 558
Releases: 0
From: Харьков
On Forums: 8 years 8 months
Thanks: 174 time(s)
Ukraine


На удивление крепкая работа, однозначно лучше двух предшественников.


Thanks:
Go to the top of the page
  Insert nick Quick quote
+Quote Post

Reply to this topicStart new topic
2 User(s) are reading this topic (2 Guests and 0 Anonymous Users)
0 Members:

 



- Lo-Fi Version Support form
Copyrights and abuse reports form
Time is now: 23rd June 2018 - 03:41:29