Welcome Guest ( Log In | Register )

> Mortals Path - Blood Omen [ep] (2017), Old School Death Metal
post May 26 2018, 19:05:04
Post #1

Правь статус, ####!111
**************
Group: Металариец
Posts: 13,355
Releases: 9415
From: Г.Харьков
On Forums: 6 years 1 month
Thanks: 153658 time(s)
Unknown


(IMG:https://metalarea.org/images/audiocovers/2018_May/acov_tid306443_thumb.jpg)

*Artist: Mortals Path
*Album: Blood Omen [ep]
*Year: 2017
*Genre: Old School Death Metal
*Country: Germany (IMG:https://metalarea.org/forum/style_images/flags/Germany.png)
*Format: mp3@CBR192kbps
*Size: 26MB

Tracklist:
1. Blood Omen 04:50
2. Maimed Beyond Recognition 02:56
3. Eternal Stench of Decay 02:56
4. Sacrificed Mind and Rotten Flesh 04:25
5. Emperor 04:23
******************************
Total playing time: 19:30




Extended info
В ЛОУ
Martin- Vocals,
Dennis- Guitars,
Anna - Guitars,
Ersin- Bass,
Sebastian- Drums


Technical info
(IMG:https://metalarea.org/images/spectrogram/2018_May/3f68890f69adeb8d04d359117df3f3f7.png)
Input File: 03 - Eternal Stench of Decay.mp3
Channels : 2
Sample Rate : 44100
Precision : 16-bit
Duration : 00:02:57.09 = 7809625 samples = 13281.7 CDDA sectors
File Size : 4.25M
Bit Rate : 192k
Sample Encoding: MPEG audio (layer I, II or III)
Comments :
Title=Eternal Stench of Decay
Artist=Mortals Path
Album=Blood Omen
Tracknumber=3
Year=2017
Genre=Death Metal



Register


Go to the top of the page
  Insert nick Quick quote
+Quote Post
 
Start new topic
Replies (1 - 1)
post May 27 2018, 22:03:31
Post #2

Crush The Enemies
**************
Group: Металариец
Posts: 4,072
Releases: 0
From: Moscow
On Forums: 8 years 9 months
Thanks: 2021 time(s)
Russian Federation



Эта ипишка намного хуже их демо 2016 года - и саунд изгадили,и вокал похлипче звучит (IMG:style_emoticons/default/21.gif)

P.S Послушайте демо на кэмпе - вот там самый олдскульно-ДЭТОВЫЙ жиииир! (IMG:style_emoticons/default/metaler.gif) (IMG:style_emoticons/default/metaler.gif) (IMG:style_emoticons/default/metaler.gif)


Thanks:
Go to the top of the page
  Insert nick Quick quote
+Quote Post

Reply to this topicStart new topic
1 User(s) are reading this topic (1 Guests and 0 Anonymous Users)
0 Members:

 



- Lo-Fi Version Support form
Copyrights and abuse reports form
Time is now: 20th June 2018 - 13:59:42