Welcome Guest ( Log In | Register )

> Frozen Dreams - Beyond Darkness (2018), Atmospheric Black Metal
post May 27 2018, 13:14:09
Post #1

Правь статус, ####!111
**************
Group: Металариец
Posts: 21,894
Releases: 15100
From: Г.Харьков
On Forums: 8 years 2 weeks
Thanks: 273898 time(s)
Unknown


(IMG:https://metalarea.org/images/audiocovers/2018_May/acov_tid306465_thumb.jpg)

*Artist: Frozen Dreams
*Album: Beyond Darkness
*Year: 2018
*Genre: Atmospheric Black Metal
*Country: Sweden (IMG:https://metalarea.org/forum/style_images/flags/Sweden.png)
*Format: mp3@CBR320kbps
*Size: 105MB

Tracklist:
01. Darkness Arise
02. The Dying Tide
03. Haunted Dreams
04. Tears of Pain
05. Everything Dies
06. Life Beyond Death
******************************
Total playing time: 45:44


(IMG:https://metalarea.org/images/youtube.png)

Technical info
(IMG:https://metalarea.org/images/spectrogram/2018_May/e3828c65cce2313fead40c06e571c3f9.png)
Input File: 02. The Dying Tide.mp3
Channels : 2
Sample Rate : 44100
Precision : 16-bit
Duration : 00:00:00.48 = 21168 samples = 36 CDDA sectors
File Size : 19.3M
Bit Rate : 322M
Sample Encoding: MPEG audio (layer I, II or III)
Comments :
Title=The Dying Tide
Artist=Frozen Dreams
Album=Beyond Darkness
Tracknumber=2/6
Year=2018-18-20
Discnumber=1/1



Register


Go to the top of the page
  Insert nick Quick quote
+Quote Post
 
Start new topic
Replies (1 - 5)
post May 27 2018, 16:58:36
Post #2

Правь статус, ####!111
**************
Group: Металариец
Posts: 21,894
Releases: 15100
From: Г.Харьков
On Forums: 8 years 2 weeks
Thanks: 273898 time(s)
Unknown


Register


Go to the top of the page
  Insert nick Quick quote
+Quote Post
post May 28 2018, 02:19:39
Post #3

Правь статус, ####!111
**************
Group: Металариец
Posts: 2,459
Releases: 11
From: Canada
On Forums: 12 years 11 months
Thanks: 1639 time(s)
Canada




Go to the top of the page
  Insert nick Quick quote
+Quote Post
post May 30 2018, 11:30:37
Post #4

Правь статус, ####!111
**************
Group: Металариец
Posts: 3,007
Releases: 8
From: Dnipro
On Forums: 11 years 10 months
Thanks: 970 time(s)
Ukraine


Залейте у кого 2017 альбом есть.


Thanks:
Go to the top of the page
  Insert nick Quick quote
+Quote Post
post Jun 1 2018, 18:43:40
Post #5

Маньяк
**********
Group: Металариец
Posts: 1,114
Releases: 940
From: Новороссийск
On Forums: 9 years 1 month
Thanks: 17807 time(s)
Russian Federation


ЦИТАТА(isvili @ May 30 2018, 11:30:37) *
Залейте у кого 2017 альбом есть.

Ссылка скопирована с Dark-world.ru 144mb 320kbps yadi.sk


Go to the top of the page
  Insert nick Quick quote
+Quote Post
post Feb 25 2019, 09:37:12
Post #6

Три Литра
***
Group: Завсегдатай
Posts: 257
Releases: 0
From: Ростова на Дону
On Forums: 11 years 3 months
Thanks: 45 time(s)
Russian Federation


ЦИТАТА(demenn @ Jun 1 2018, 20:43:40) *
Ссылка скопирована с Dark-world.ru 144mb 320kbps yadi.sk

Это же Шведы, а то по ссылке американские фрозен дримс...
Go to the top of the page
  Insert nick Quick quote
+Quote Post

Reply to this topicStart new topic
2 User(s) are reading this topic (2 Guests and 0 Anonymous Users)
0 Members:

 



- Lo-Fi Version Support form
Copyrights and abuse reports form
Time is now: 30th May 2020 - 21:36:48