Welcome Guest ( Log In | Register )

 
Reply to this topicStart new topic
> Sadism - Al Azif [ep] (2017), Death Metal
post May 29 2018, 18:01:53
Post #1

Маньяк
**********
Group: Металариец
Posts: 1,346
Releases: 1137
From: Одесса
On Forums: 10 years 2 months
Thanks: 8833 time(s)
Ukraine


(IMG:http://metalarea.org/images/audiocovers/2018_May/acov_tid306546_thumb.jpg)

*Artist: Sadism
*Album: Al Azif [ep]
*Year: 2017
*Genre: Death Metal
*Country: Chile (IMG:http://metalarea.org/forum/style_images/flags/Chile.png)
*Format: mp3@CBR128kbps (IMG:http://metalarea.org/images/bit_low.gif)
*Size: 16MB

Tracklist:
1. Al Azif 03:45
2. Sumerian 04:26
3. The Persistence From Memorial Chasm (Invocator cover) 04:11
4. Soulside Journey (Darkthrone cover) 04:34
******************************
Total playing time: 16:56



Extended info
Line - up:

Juan Pablo Donoso - Drums (Pentagram Chile, ex-Audiopsicótica, ex-Execrator, ex-Nimrod B.C., ex-The Gardnerz, ex-Thornafire, ex-Steelrage (live))
Ricardo Roberts - Vocals
Juan Edo Moore - Bass (Barrabaz, Luxferre, ex-Sol Sistere, ex-Delonelyman)
Gabriel Hidalgo - Guitars (Hidalgo, The Inferno Doll, ex-Dethroner, ex-Husar, ex-Six Magics, ex-Witchblade, ex-Delta (live), ex-Alexis Birds of Prey)


Technical info
(IMG:http://metalarea.org/images/spectrogram/2018_May/31b7161d79d4c1550cf3e9eafd5b2a6b.png)
Input File: 01 Al Azif.mp3
Channels : 2
Sample Rate : 44100
Precision : 16-bit
Duration : 00:03:45.79 = 9957383 samples = 16934.3 CDDA sectors
File Size : 3.62M
Bit Rate : 128k
Sample Encoding: MPEG audio (layer I, II or III)
Comments :
Title=Al Azif
Artist=Sadism
Album=Al Azif (EP)
Tracknumber=01
Year=2017
Genre=22



Register


Go to the top of the page
  Insert nick Quick quote
+Quote Post

Reply to this topicStart new topic
1 User(s) are reading this topic (1 Guests and 0 Anonymous Users)
0 Members:

 



- Lo-Fi Version Support form
Copyrights and abuse reports form
Time is now: 20th August 2018 - 23:55:54