Welcome Guest ( Log In | Register )

> 

Здесь релизы с живыми прямыми ссылками на lossless

> Pugnator - Anxiety (2017), Thrash Metal
post May 29 2018, 19:00:43
Post #1

Правь статус, ####!111
**************
Group: Металариец
Posts: 13,355
Releases: 9415
From: Г.Харьков
On Forums: 6 years 1 month
Thanks: 153658 time(s)
Unknown


(IMG:https://metalarea.org/images/audiocovers/2018_May/acov_tid306548_thumb.jpg)

*Artist: Pugnator
*Album: Anxiety
*Year: 2017
*Genre: Thrash Metal
*Country: Spain (IMG:https://metalarea.org/forum/style_images/flags/Spain.png)
*Format: mp3@CBR320kbps
*Size: 87MB

Tracklist:
1. Anxiety 00:59
2. Infant Pain 04:06
3. Saint Day 04:51
4. Cocaine 04:11
5. Sheeps 03:55
6. Thirty Days 03:57
7. Love Song 05:21
8. Crazy Head 05:26
9. Spiral 04:59
******************************
Total playing time: 37:45

Preview 1


Extended info
FLAC Rip
Carlos Moreno Bass
Luis Herrera Drums
Pedro Ferris Guitars
Arturo Núñez Vocals (lead)



Technical info
(IMG:https://metalarea.org/images/spectrogram/2018_May/40f92f69234a16175b99c079ead8d2c7.png)
Input File: 03 - Saint Day.mp3
Channels : 2
Sample Rate : 44100
Precision : 16-bit
Duration : 00:04:51.16 = 12840200 samples = 21837.1 CDDA sectors
File Size : 11.7M
Bit Rate : 322k
Sample Encoding: MPEG audio (layer I, II or III)
Comments :
Title=Saint Day
Artist=Pugnator
Album=Anxiety
Tracknumber=3/9
Year=2017



Register


Go to the top of the page
  Insert nick Quick quote
+Quote Post
 
Start new topic
Replies (1 - 3)
post May 30 2018, 06:49:39
Post #2

Правь статус, ####!111
**************
Group: Металариец
Posts: 13,355
Releases: 9415
From: Г.Харьков
On Forums: 6 years 1 month
Thanks: 153658 time(s)
Unknown


Register

Register


Go to the top of the page
  Insert nick Quick quote
+Quote Post
post May 30 2018, 08:23:31
Post #3

Правь статус, ####!111
**************
Group: Металариец
Posts: 32,111
Releases: 486
On Forums: 9 years 2 weeks
Thanks: 24620 time(s)
Russian Federation


Плохой трэш от ПУКнатора (IMG:style_emoticons/default/1488.gif)
Go to the top of the page
  Insert nick Quick quote
+Quote Post
post May 30 2018, 11:40:10
Post #4

_ - = # Thrashogolic # = - _ ... а давайте поржём все вместе
**************
Group: Металариец
Posts: 20,848
Releases: 4444
From: 404
On Forums: 8 years 3 days
Thanks: 27004 time(s)
Ukraine


Глянул оф. клип.
Хороший добротный метал - современный такой мелотреш-модерн экстрим метал.
Без звёзд.
Go to the top of the page
  Insert nick Quick quote
+Quote Post

Reply to this topicStart new topic
1 User(s) are reading this topic (1 Guests and 0 Anonymous Users)
0 Members:

 



- Lo-Fi Version Support form
Copyrights and abuse reports form
Time is now: 20th June 2018 - 14:15:44