Welcome Guest ( Log In | Register )

> Furfur - Le Silence Après La Mort (2018), Raw Black Metal
post May 31 2018, 14:26:16
Post #1

Семь Литров
*******
Group: Металариец
Posts: 783
Releases: 165
On Forums: 8 years 3 weeks
Thanks: 1987 time(s)
Albania


(IMG:http://metalarea.org/images/audiocovers/2018_May/acov_tid306610_thumb.jpg)

*Artist: Furfur
*Album: Le Silence Après La Mort
*Year: 2018
*Genre: Raw Black Metal
*Country: France (IMG:http://metalarea.org/forum/style_images/flags/France.png)
*Format: mp3@CBR128kbps (IMG:http://metalarea.org/images/bit_low.gif)
*Size: 38MB

Tracklist:
1.Hiver Morbide (Intro) 01:06
2.Souffrance 03:46
3.Avant la Destruction 03:15
4.Mes Ailes 01:40
5.Ce Foutu Corbeau 02:46
6.Le Silence Après la Mort 04:04
7.Misanthropie 4 02:33
8.Enfouis Sous un Tas de Neige 04:45
9.Horde Noire 02:19
10.La Foudre de la Vérité 03:32
11.Après la Destruction 02:49
12.Seul 02:21
13.Six-Cents-Soixante-Six 02:20
14.Suprême Mélancholie 03:12
15.La Nuit des Rats 01:25
******************************
Total playing time: 41:53



Technical info
(IMG:http://metalarea.org/images/spectrogram/2018_May/99e4f07816923af6f20151e02912e392.png)
Input File: 2 - Souffrance.mp3
Channels : 2
Sample Rate : 44100
Precision : 16-bit
Duration : 00:03:46.54 = 9990458 samples = 16990.6 CDDA sectors
File Size : 3.63M
Bit Rate : 128k
Sample Encoding: MPEG audio (layer I, II or III)
Comments :
Title=Souffrance
Artist=Furfur
Album=Le Silence AprГЁs la Mort
Tracknumber=2/15



Register


Go to the top of the page
  Insert nick Quick quote
+Quote Post
 
Start new topic
Replies (1 - 8)
post Jun 1 2018, 09:04:36
Post #2
BAN
Banned till
Oct 23 2018, 12:27:08



Облога замечательная, по Иуде (IMG:style_emoticons/default/true_black.gif)
Go to the top of the page
  Insert nick Quick quote
+Quote Post
post Jun 1 2018, 14:05:50
Post #3

Семь Литров
*******
Group: Металариец
Posts: 783
Releases: 165
On Forums: 8 years 3 weeks
Thanks: 1987 time(s)
Albania


TOTAL SUPPORT TO FURFUR (IMG:style_emoticons/default/true_black.gif) (IMG:style_emoticons/default/true_black.gif) (IMG:style_emoticons/default/true_black.gif)
Go to the top of the page
  Insert nick Quick quote
+Quote Post
post Jun 1 2018, 20:23:46
Post #4

Satan bless you!
**************
Group: Металариец
Posts: 3,275
Releases: 63
From: Москва
On Forums: 10 years 3 months
Thanks: 2827 time(s)
Russian Federation


А, знакомый чувак с клюшкой( архивы)...количество релизов в 2017 навевает как бы)
Даешь еще больше в 2018)
Go to the top of the page
  Insert nick Quick quote
+Quote Post
post Jun 5 2018, 14:44:05
Post #5

Group: Подсевший
Posts: 19
Releases: 0
On Forums: 2 years 1 month
Thanks: 8 time(s)
Unknown


You might support the band if you like it, love "Enfouis sous un ts de neige".
Go to the top of the page
  Insert nick Quick quote
+Quote Post
post Jun 12 2018, 10:25:35
Post #6

Маньяк
**********
Group: Металариец
Posts: 1,304
Releases: 336
From: Масква
On Forums: 13 years 4 days
Thanks: 3460 time(s)
Russian Federation


ЦИТАТА(BurzumThrone @ Jun 5 2018, 18:44:05) *
You might support the band if you like it, love "Enfouis sous un ts de neige".


What do you suggest to support? Bedroom crappy BM ?
Go to the top of the page
  Insert nick Quick quote
+Quote Post
post Jun 12 2018, 18:44:03
Post #7

Group: Подсевший
Posts: 19
Releases: 0
On Forums: 2 years 1 month
Thanks: 8 time(s)
Unknown


QUOTE(Ildjarn @ Jun 12 2018, 11:25:35) *
What do you suggest to support? Bedroom crappy BM ?


It seems you don't know anything about black metal, about underground bands ahah.
What is a crappy, bedroom black metal? Something you are unable to create?
From these bedrooms, there is more philosophical aspects of the music, a real music which come from the heart of the musicians.
Then, bedroom = crappy for you?
So go listen to awesome studios bands like Satyricon, for sure they are way better with nothing to say.
I think we should all listen to this underground kind of music, these bands don't care about being supported, they do their music and fuck off.
Go to the top of the page
  Insert nick Quick quote
+Quote Post
post Jun 20 2018, 15:06:18
Post #8

Group: Подсевший
Posts: 11
Releases: 0
On Forums: 3 months 4 weeks
Thanks: 1 time(s)
Romania


Свирепый мозгодел, по всей видимости!
Go to the top of the page
  Insert nick Quick quote
+Quote Post
post Sep 29 2018, 09:51:00
Post #9

Правь статус, ####!111
**************
Group: Металариец
Posts: 2,670
Releases: 0
From: Одесса
On Forums: 10 years 7 months
Thanks: 1060 time(s)
Ukraine


No, sorry.
Go to the top of the page
  Insert nick Quick quote
+Quote Post

Reply to this topicStart new topic
1 User(s) are reading this topic (1 Guests and 0 Anonymous Users)
0 Members:

 



- Lo-Fi Version Support form
Copyrights and abuse reports form
Time is now: 20th October 2018 - 05:17:09