Welcome Guest ( Log In | Register )

> Правила / Rules

Тут только для чтения лежат низкобитрейтные (<192kbps) релизы, для которых есть аналоги в высокобитрейтных форумах.

Here goes (and stand in read only mode) low bitrate releases (<192kbps) which were already replaced by high bitrate releases in corresponding forums.

> Zardens - Heretic Death Cult (2018), Black/Death Metal
post May 31 2018, 16:42:28
Post #1

Маньяк
**********
Group: Металариец
Posts: 1,406
Releases: 1194
From: Одесса
On Forums: 10 years 3 months
Thanks: 9297 time(s)
Ukraine


(IMG:http://metalarea.org/images/audiocovers/2018_May/acov_tid306619_thumb.jpg)

*Artist: Zardens
*Album: Heretic Death Cult
*Year: 2018
*Genre: Black/Death Metal
*Country: Belgium (IMG:http://metalarea.org/forum/style_images/flags/Belgium.png)
*Format: mp3@CBR128kbps (IMG:http://metalarea.org/images/bit_low.gif)
*Size: 49MB

Tracklist:
1. Heretic Death Cult's Rebirth (Devoted To Death part I) 05:47
2. Unearthing The Magic (Devoted To Death part II) 06:13
3. The Black Candle (Devoted To Death part III) 04:14
4. Respice Finem (Food For Worms) 05:32
5. Procession Of The Living Dead 05:35
6. Orphans Of History 07:20
7. Via Subterranea 05:12
8. Hopeful Path Through Deep Furrows 06:13
9. Sanitarium For The Soul 04:42
******************************
Total playing time: 50:48

(IMG:http://metalarea.org/images/myspace.png)

(IMG:http://metalarea.org/images/youtube.png)

Extended info
Line - up:

Warnacht - Guitars (lead) (ex-Ex Delirium, ex-Moribund)
Dimitri - Bass (Coliseum)
Morholt - Vocals
Flocky - Guitars (rhythm) (Mutisme, Absolutus (live), ex-Sercati)
Léo - Drums ( Do or Die)

(IMG:https://www.metal-archives.com/images/3/5/4/0/3540342536_photo.jpg?3019)


Technical info
(IMG:http://metalarea.org/images/spectrogram/2018_May/cc2452384b790890c2b299eef273342d.png)
Input File: 04. Respice Finem (Food For Worms).mp3
Channels : 2
Sample Rate : 44100
Precision : 16-bit
Duration : 00:05:32.54 = 14665058 samples = 24940.6 CDDA sectors
File Size : 5.32M
Bit Rate : 128k
Sample Encoding: MPEG audio (layer I, II or III)
Comments :
Title=Respice Finem (Food For Worms)
Artist=Zardens
Album=Heretic Death Cult
Tracknumber=4
Year=2018
Genre=Black / Death Metal



Register


Go to the top of the page
  Insert nick Quick quote
+Quote Post
 
Start new topic
Replies (1 - 3)
post Jun 1 2018, 10:07:01
Post #2

Литр
*
Group: Подсевший
Posts: 80
Releases: 0
From: Kharkov
On Forums: 1 year 4 months
Thanks: 10 time(s)
Ukraine


Necrokilldozer, салют,а дебютника Breeding the Dark 2012 ни у кого нет,чёто весь инет перерыл,нигде нет! (IMG:style_emoticons/default/normal_Homerdisgust3.png)
Go to the top of the page
  Insert nick Quick quote
+Quote Post
post Jun 2 2018, 03:39:25
Post #3

Маньяк
**********
Group: Металариец
Posts: 1,406
Releases: 1194
From: Одесса
On Forums: 10 years 3 months
Thanks: 9297 time(s)
Ukraine


ЦИТАТА(Albert66613 @ Jun 1 2018, 12:07:01) *
Necrokilldozer, салют,а дебютника Breeding the Dark 2012 ни у кого нет,чёто весь инет перерыл,нигде нет! (IMG:style_emoticons/default/normal_Homerdisgust3.png)

у меня нет...(
Go to the top of the page
  Insert nick Quick quote
+Quote Post
post Jun 2 2018, 07:30:52
Post #4

Литр
*
Group: Подсевший
Posts: 80
Releases: 0
From: Kharkov
On Forums: 1 year 4 months
Thanks: 10 time(s)
Ukraine


Necrokilldozer, жаль!будем ждать,и искать!!!

Go to the top of the page
  Insert nick Quick quote
+Quote Post

Причина закрытия (Хогги 27-06-2018): Причина закрытия
Closed TopicStart new topic
2 User(s) are reading this topic (2 Guests and 0 Anonymous Users)
0 Members:

 



- Lo-Fi Version Support form
Copyrights and abuse reports form
Time is now: 25th September 2018 - 21:08:04