Welcome Guest ( Log In | Register )

> И неформату есть предел.

Рэп/хип-хоп/шансон/поп удаляются. Для них есть свои порталы.

> Trinity - Symphony Of The Bard - Beyond The Mist (2018), Black Metal (D4)
post May 31 2018, 18:13:19
Post #1

Маньяк
**********
Group: Металариец
Posts: 1,417
Releases: 1205
From: Одесса
On Forums: 10 years 4 months
Thanks: 9393 time(s)
Ukraine


(IMG:http://metalarea.org/images/audiocovers/2018_May/acov_tid306625_thumb.jpg)

*Artist: Trinity
*Album: Symphony Of The Bard - Beyond The Mist
*Year: 2018
*Genre: Black Metal
*Country: Italy (IMG:http://metalarea.org/forum/style_images/flags/Italy.png)
*Format: mp3@CBR320kbps
*Size: 79MB

Tracklist:
1. The Bard - Ancient Runes 06:00
2. La Luna del Lupo 04:21
3. In the Misty Mountain 03:22
4. Malt Brau 02:58
5. Beyond the Mist 03:50
6. Grisera 03:14
7. Skoll 03:16
8. The Battle 03:13
9. A New Life 02:06
******************************
Total playing time: 32:20



Extended info
Line - up:

Riccardo Brumat - All instruments, Vocals (Darkness, Fallen Angels, ex-Furor Gallico)


Technical info
(IMG:http://metalarea.org/images/spectrogram/2018_May/6319e0f53eee71abff15ddd01f84f93d.png)
Input File: 04. Malt Brau.mp3
Channels : 2
Sample Rate : 48000
Precision : 16-bit
Duration : 00:02:58.56 = 8571024 samples ~ 13392.2 CDDA sectors
File Size : 7.15M
Bit Rate : 320k
Sample Encoding: MPEG audio (layer I, II or III)
Comments :
Title=Malt Brau
Artist=Trinity
Album=Symphony of the Bard - Beyond the mist
Tracknumber=4
Year=2018
Genre=138



Register


Go to the top of the page
  Insert nick Quick quote
+Quote Post
 
Start new topic
Replies (1 - 4)
post Jun 1 2018, 05:08:13    Сейчас играет: Lacrimosa - Bresso
Post #2

antithesis
**************
Group: Металариец
Posts: 2,346
Releases: 29
From: VRN
On Forums: 8 years 4 months
Thanks: 1235 time(s)
Russian Federation


mirror, pls
Go to the top of the page
  Insert nick Quick quote
+Quote Post
post Jun 1 2018, 11:12:42
Post #3

Paysage D'Hiver
**************
Group: Металариец
Posts: 5,681
Releases: 521
On Forums: 11 years 2 months
Thanks: 7930 time(s)
Russian Federation


Чтот тут бм обещанного и нет совсем
Go to the top of the page
  Insert nick Quick quote
+Quote Post
post Jun 1 2018, 11:32:02
Post #4
BAN
Banned till
Oct 23 2018, 12:27:08



@320

Register


Thanks:
(1) VALERY,
Go to the top of the page
  Insert nick Quick quote
+Quote Post
post Jun 1 2018, 20:27:47
Post #5

Satan bless you!
**************
Group: Металариец
Posts: 3,275
Releases: 63
From: Москва
On Forums: 10 years 3 months
Thanks: 2819 time(s)
Russian Federation


ЦИТАТА(Paatddal @ Jun 1 2018, 13:12:42) *
Чтот тут бм обещанного и нет совсем

Мда, однозначно унформат, здесь не то что блэка - здесь митала ваще нет)
Go to the top of the page
  Insert nick Quick quote
+Quote Post

Reply to this topicStart new topic
2 User(s) are reading this topic (2 Guests and 0 Anonymous Users)
0 Members:

 



- Lo-Fi Version Support form
Copyrights and abuse reports form
Time is now: 16th October 2018 - 07:38:15