Welcome Guest ( Log In | Register )

> Orion Dawn - Poles Apart (2018), Post-Metal
post Jun 1 2018, 09:43:30
Post #1

Аннигилятор пивА
Group Icon
Group: V.I.P
Posts: 49,384
Releases: 15233
From: Koenigsberg - TILZIT
On Forums: 12 years 4 months
Thanks: 332519 time(s)
Russian Federation


(IMG:https://metalarea.org/images/audiocovers/2018_Jun/acov_tid306648_thumb.jpg)

*Artist: Orion Dawn
*Album: Poles Apart
*Year: 2018
*Genre: Post-Metal
*Country: Hungary (IMG:https://metalarea.org/forum/style_images/flags/Hungary.png)
*Format: mp3@CBR320kbps
*Size: 76MB

Tracklist:
01. ...
02. Feel
03. The Longest Night
04. Of
05. A Desperate Man
06. Trying To Forget
07. The Unforgettable
08. 3122-Day-Long
09. Journey To Nowhere
10. .
******************************
Total playing time: 32:33



Extended info
Gábor Kovács - vocals
Zoltán Rezsőfi - guitar
Gábor Vincze - guitar
Levente Barabás - bass
András Smid - drum




Technical info
(IMG:https://metalarea.org/images/spectrogram/2018_Jun/e416154036d1cbfaf0fb55c44ecf98ab.png)
Input File: 06. Trying to Forget.mp3
Channels : 2
Sample Rate : 44100
Precision : 16-bit
Duration : 00:04:08.79 = 10971639 samples = 18659.2 CDDA sectors
File Size : 10.0M
Bit Rate : 322k
Sample Encoding: MPEG audio (layer I, II or III)
Comments :
Title=Trying to Forget
Artist=Orion Dawn
Album=Poles Apart
Tracknumber=6/10
Year=2018
Genre=Post-Metal



Register


Go to the top of the page
  Insert nick Quick quote
+Quote Post
 
Start new topic
Replies (1 - 2)
post Jun 1 2018, 11:01:55
Post #2

Leegte
**********
Group: Металариец
Posts: 1,483
Releases: 14
From: Kiovia
On Forums: 6 years 5 months
Thanks: 2094 time(s)
Ukraine


Годнота.
И я удивлён, что тег ограничивается лишь post-metal'ом, явно есть и другие влияния (хард-рок, например).
Go to the top of the page
  Insert nick Quick quote
+Quote Post
post Jun 14 2018, 06:34:18
Post #3

Group: Подсевший
Posts: 11
Releases: 0
From: Mexico
On Forums: 7 years 8 months
Thanks: 0 time(s)
Mexico


https://www.youtube.com/watch?v=r7zrYqT5YgQ
Go to the top of the page
  Insert nick Quick quote
+Quote Post

Reply to this topicStart new topic
1 User(s) are reading this topic (1 Guests and 0 Anonymous Users)
0 Members:

 



- Lo-Fi Version Support form
Copyrights and abuse reports form
Time is now: 16th October 2018 - 06:27:53