Welcome Guest ( Log In | Register )

> Releases Upload / Добавление релизов

Добавить релиз тут / Click here to add release
Рекомендованные обменники / Recommended file shares

> Witchskull - Coven's Will (2018), Heavy/Stoner Metal
post Jun 1 2018, 17:01:20
Post #1

Маньяк
**********
Group: Металариец
Posts: 1,166
Releases: 981
From: Одесса
On Forums: 10 years 2 weeks
Thanks: 7608 time(s)
Ukraine


(IMG:http://metalarea.org/images/audiocovers/2018_Jun/acov_tid306675_thumb.jpg)

*Artist: Witchskull
*Album: Coven's Will
*Year: 2018
*Genre: Heavy/Stoner Metal
*Country: Australia (IMG:http://metalarea.org/forum/style_images/flags/Australia.png)
*Format: mp3@CBR320kbps
*Size: 85MB

Tracklist:
1. Raven 02:56
2. Son of the Snake 05:05
3. Priestess 04:35
4. Breathing Blue... 04:27
5. Demon's Cage 03:44
6. Spyres 03:48
7. Lord of the Void 04:55
8. The Empty Well 06:17
******************************
Total playing time: 35:47



Extended info
Line - up:

Tony McMahon - Bass
Joel Green - Drums (Wardom, ex-Armoured Angel, ex-Under Oath)
Marcus De Pasquale - Vocals, Guitars (Looking Glass)

(IMG:https://f4.bcbits.com/img/0007365319_10.jpg)


Technical info
(IMG:http://metalarea.org/images/spectrogram/2018_Jun/47ec3b2a62bfc5e0e99ff15d02fa9992.png)
Input File: 01 Raven.mp3
Channels : 2
Sample Rate : 44100
Precision : 16-bit
Duration : 00:02:55.95 = 7759571 samples = 13196.5 CDDA sectors
File Size : 7.04M
Bit Rate : 320k
Sample Encoding: MPEG audio (layer I, II or III)
Comments :
Title=Raven
Artist=Witchskull
Album=Coven's Will
Tracknumber=01
Year=2018
Genre=Heavy / Stoner Metal



Register


Go to the top of the page
  Insert nick Quick quote
+Quote Post
 
Start new topic
Replies (1 - 2)
post Jun 2 2018, 13:44:00
Post #2

hearer & reader
**************
Group: Металариец
Posts: 6,402
Releases: 81
From: Moscow
On Forums: 10 years 9 months
Thanks: 6418 time(s)
Russian Federation



Цепеллинов все слышали?
Или меня по пьяни глючит?


Thanks:
Go to the top of the page
  Insert nick Quick quote
+Quote Post
post Jun 13 2018, 14:37:56
Post #3

South Of Heaven /адепт ВУДУ
**************
Group: Металариец
Posts: 12,540
Releases: 7
From: Санкт-Петербург
On Forums: 8 years 2 months
Thanks: 4506 time(s)
Russian Federation


ЦИТАТА(AHBAnep @ Jun 2 2018, 15:44:00) *
Цепеллинов все слышали?

Есть такое дело, но и своего хватает, в общем, для меня, отличный альбом, как и дебютник.
Go to the top of the page
  Insert nick Quick quote
+Quote Post

Reply to this topicStart new topic
2 User(s) are reading this topic (2 Guests and 0 Anonymous Users)
0 Members:

 



- Lo-Fi Version Support form
Copyrights and abuse reports form
Time is now: 23rd June 2018 - 05:18:55