Welcome Guest ( Log In | Register )

> Spectral Wound - Infernal Decadence (2018), Black Metal
post Jun 1 2018, 21:22:18
Post #1

Правь статус, ####!616
**************
Group: Металариец
Posts: 4,723
Releases: 3299
From: 55°35’N 38°08’E
On Forums: 11 years 6 months
Thanks: 62581 time(s)
Unknown


(IMG:http://metalarea.org/images/audiocovers/2018_Jun/acov_tid306685_thumb.jpg)

*Artist: Spectral Wound
*Album: Infernal Decadence
*Year: 2018
*Genre: Black Metal
*Country: Canada (IMG:http://metalarea.org/forum/style_images/flags/Canada.png)
*Format: mp3@CBR320kbps
*Size: 83MB

Tracklist:
1. Woods from Which the Spirits Once so Loudly Howled 06:01
2. Black Satanic Glamour 04:12
3. Slaughter of the Medusa 06:16
4. Feral Gates of Flesh 05:33
5. La nuit froide de l'oubli 04:21
6. Imperial Thanatosis 07:50
******************************
Total playing time: 34:13




Technical info
(IMG:http://metalarea.org/images/spectrogram/2018_Jun/a52993abdd3d53bfb13d372eada0e417.png)
Input File: 01 Woods from Which the Spirits Once so Loudly Howled.mp3
Channels : 2
Sample Rate : 44100
Precision : 16-bit
Duration : 00:06:01.10 = 15924554 samples = 27082.6 CDDA sectors
File Size : 14.5M
Bit Rate : 322k
Sample Encoding: MPEG audio (layer I, II or III)
Comments :
Title=Woods From Which The Spirits Once So Loudly Howled
Artist=Spectral Wound
Album=Infernal Decadence
Tracknumber=1
Year=2018
Genre=Black Metal



Register


Go to the top of the page
  Insert nick Quick quote
+Quote Post
 
Start new topic
Replies (1 - 6)
post Jun 2 2018, 16:47:13
Post #2

Три Литра
***
Group: Завсегдатай
Posts: 282
Releases: 0
From: Kyiv
On Forums: 7 years 9 months
Thanks: 110 time(s)
Ukraine


Сочный блэчок, забираем.


Thanks:
(1) Storky,
Go to the top of the page
  Insert nick Quick quote
+Quote Post
post Jun 3 2018, 00:01:00
Post #3

Absorbence
***********
Group: Металариец
Posts: 1,704
Releases: 215
From: Vastland Abyss of Cthulhu
On Forums: 13 years 2 months
Thanks: 3737 time(s)
Canada


this is one more band from Canada, along with Profane Order, I would like to bring attention to. cool stuff (IMG:style_emoticons/default/true_black.gif) (IMG:style_emoticons/default/true_black.gif) (IMG:style_emoticons/default/true_black.gif)
Go to the top of the page
  Insert nick Quick quote
+Quote Post
post Jun 10 2018, 14:32:23
Post #4

Самый Тихий Час
**************
Group: Металариец
Posts: 5,855
Releases: 2
On Forums: 10 years 2 months
Thanks: 2669 time(s)
Unknown


неплохо, даже можеть быть мощно.
но переслушивать вряд ли стану
Go to the top of the page
  Insert nick Quick quote
+Quote Post
post Jun 27 2018, 10:00:40
Post #5

кручу наждак
**************
Group: Металариец
Posts: 4,218
Releases: 99
From: Самара
On Forums: 9 years 8 months
Thanks: 3299 time(s)
Russian Federation


Качественный, но абсолютно безликий альбом. Не покидало ощущение какой-то наигранной ярости и нарочитой мелодичности.
Go to the top of the page
  Insert nick Quick quote
+Quote Post
post Nov 30 2018, 21:33:42
Post #6

Правь статус, ####!111
**************
Group: Металариец
Posts: 4,430
Releases: 0
From: Одесса
On Forums: 11 years 10 months
Thanks: 2851 time(s)
Unknown


(IMG:style_emoticons/default/9.gif)
Go to the top of the page
  Insert nick Quick quote
+Quote Post
post Jan 21 2019, 13:21:58
Post #7

Пять Литров
*****
Group: Металариец
Posts: 448
Releases: 0
From: APATIN, SERBIA, АПАТИН, СЕРБИЯ
On Forums: 12 years 3 months
Thanks: 586 time(s)



Flac

Register


Go to the top of the page
  Insert nick Quick quote
+Quote Post

Reply to this topicStart new topic
2 User(s) are reading this topic (2 Guests and 0 Anonymous Users)
0 Members:

 



- Lo-Fi Version Support form
Copyrights and abuse reports form
Time is now: 24th January 2020 - 07:06:23