Welcome Guest ( Log In | Register )

 
Reply to this topicStart new topic
> Snotweb - Demo 1988 [demo] (1988), Thrash Metal/Crossover
post Jun 2 2018, 05:06:26
Post #1

Подвал
**************
Group: Металариец
Posts: 12,161
Releases: 6860
From: Far East (Khabarovsk)
On Forums: 9 years 4 months
Thanks: 62610 time(s)
Russian Federation


(IMG:http://metalarea.org/images/audiocovers/2018_Jun/acov_tid306691_thumb.jpg)

*Artist: Snotweb
*Album: Demo 1988 [demo]
*Year: 1988
*Genre: Thrash Metal/Crossover
*Country: United States (IMG:http://metalarea.org/forum/style_images/flags/United%20States.png)
*Format: mp3@CBR128kbps (IMG:http://metalarea.org/images/bit_low.gif)
*Size: 12MB

Tracklist:
1. Bladder Problemyeast Infection 05:43
2. Vampiristic Plight 04:32
3. Cringe 03:17
******************************
Total playing time: 13:32

(IMG:http://metalarea.org/images/myspace.png)

Extended info
Band from Wichita, Kansas.


Technical info
(IMG:http://metalarea.org/images/spectrogram/2018_Jun/e3ec30b5b2674ca53345e394790f9d1b.png)
Input File: 02-Vampiristic Plight.mp3
Channels : 2
Sample Rate : 44100
Precision : 16-bit
Duration : 00:04:32.12 = 12000360 samples = 20408.8 CDDA sectors
File Size : 4.36M
Bit Rate : 128k
Sample Encoding: MPEG audio (layer I, II or III)
Comments :
Artist=Snotweb
Album=Demo 1988
Tracknumber=02
Year=1988
Genre=Thrash Metal



Register


Go to the top of the page
  Insert nick Quick quote
+Quote Post

Reply to this topicStart new topic
2 User(s) are reading this topic (2 Guests and 0 Anonymous Users)
0 Members:

 



- Lo-Fi Version Support form
Copyrights and abuse reports form
Time is now: 20th June 2018 - 13:58:44