Welcome Guest ( Log In | Register )

> Wartech - Demo 2 [demo] (1991), Progressive Thrash Metal
post Jun 2 2018, 05:14:51
Post #1

Подвал
**************
Group: Металариец
Posts: 12,583
Releases: 7078
From: Far East (Khabarovsk)
On Forums: 9 years 8 months
Thanks: 65432 time(s)
Russian Federation


(IMG:http://metalarea.org/images/audiocovers/2018_Jun/acov_tid306692_thumb.jpg)

*Artist: Wartech
*Album: Demo 2 [demo]
*Year: 1991
*Genre: Progressive Thrash Metal
*Country: United Kingdom (IMG:http://metalarea.org/forum/style_images/flags/United%20Kingdom.png)
*Format: mp3@CBR192kbps
*Size: 21MB

Tracklist:
1. I Need Face 08:48
2. Slow Motion 06:53
******************************
Total playing time: 15:41

Extended info
ex-Axegrinder.
Recorded in a 16 track studio in Whitstable, England.


Technical info
(IMG:http://metalarea.org/images/spectrogram/2018_Jun/46994cd9268fcee7acef5b36e668eac8.png)
Input File: 02-Slow Motion.mp3
Channels : 2
Sample Rate : 44100
Precision : 16-bit
Duration : 00:06:52.09 = 18172993 samples = 30906.5 CDDA sectors
File Size : 9.89M
Bit Rate : 192k
Sample Encoding: MPEG audio (layer I, II or III)
Comments :
Title=Slow Motion
Artist=Wartech (UK)
Album=Demo 2
Tracknumber=02
Year=1991
Genre=Thrash Metal



Register


Go to the top of the page
  Insert nick Quick quote
+Quote Post
 
Start new topic
Replies (1 - 1)
post Jun 3 2018, 10:18:20
Post #2

Семь Литров
*******
Group: Металариец
Posts: 707
Releases: 0
From: China
On Forums: 10 years 9 months
Thanks: 488 time(s)
Bulgaria


first-class Voivod-inspired progressive thrash; trippy, psychedelic stuff with very interesting unorthodox decisions


Thanks:
Go to the top of the page
  Insert nick Quick quote
+Quote Post

Reply to this topicStart new topic
1 User(s) are reading this topic (1 Guests and 0 Anonymous Users)
0 Members:

 



- Lo-Fi Version Support form
Copyrights and abuse reports form
Time is now: 20th October 2018 - 06:20:03