Welcome Guest ( Log In | Register )

 
Reply to this topicStart new topic
> Malformity - Black Holes To Heaven [demo] (1995), Death Metal
post Jun 2 2018, 06:13:55
Post #1

Подвал
**************
Group: Металариец
Posts: 12,572
Releases: 7072
From: Far East (Khabarovsk)
On Forums: 9 years 8 months
Thanks: 65349 time(s)
Russian Federation


(IMG:http://metalarea.org/images/audiocovers/2018_Jun/acov_tid306695_thumb.png)

*Artist: Malformity
*Album: Black Holes To Heaven [demo]
*Year: 1995
*Genre: Death Metal
*Country: United States (IMG:http://metalarea.org/forum/style_images/flags/United%20States.png)
*Format: mp3@CBR320kbps
*Size: 51MB

Tracklist:
1. Black Holes To Heaven 04:28
2. With Horrific Affection 06:44
3. Approaching Infinity 04:21
4. Freshly Dead 04:43
5. LIfeless... Mindless 06:45
******************************
Total playing time: 27:01




Extended info
Band from Atlanta, Georgia.
Their first demo without artwork.


Technical info
(IMG:http://metalarea.org/images/spectrogram/2018_Jun/d1319c8b99efb2e4161a391c3982e16f.png)
Input File: 03-Approaching Infinity.mp3
Channels : 2
Sample Rate : 44100
Precision : 16-bit
Duration : 00:04:22.00 = 11554156 samples = 19649.9 CDDA sectors
File Size : 10.5M
Bit Rate : 320k
Sample Encoding: MPEG audio (layer I, II or III)
Comments :
Title=Approaching Infinity
Artist=Malformity (US, GA)
Album=Black Holes To Heaven
Tracknumber=03
Year=1995
Genre=Death Metal



Register


Go to the top of the page
  Insert nick Quick quote
+Quote Post

Reply to this topicStart new topic
1 User(s) are reading this topic (1 Guests and 0 Anonymous Users)
0 Members:

 



- Lo-Fi Version Support form
Copyrights and abuse reports form
Time is now: 17th October 2018 - 06:42:30