Welcome Guest ( Log In | Register )

 
Reply to this topicStart new topic
> Putrid Scum - Is It The Way? [demo] (1989), Grindcore
post Jun 2 2018, 07:07:14
Post #1

Подвал
**************
Group: Металариец
Posts: 12,161
Releases: 6860
From: Far East (Khabarovsk)
On Forums: 9 years 4 months
Thanks: 62608 time(s)
Russian Federation


(IMG:http://metalarea.org/images/audiocovers/2018_Jun/acov_tid306698_thumb.jpg)

*Artist: Putrid Scum
*Album: Is It The Way? [demo]
*Year: 1989
*Genre: Grindcore
*Country: Mexico (IMG:http://metalarea.org/forum/style_images/flags/Mexico.png)
*Format: mp3@CBR128kbps (IMG:http://metalarea.org/images/bit_low.gif)
*Size: 26MB

Tracklist:
1. Courage For Peace 01:09
2. Sand, Sun And Napalm 02:17
3. Miscarry 01:25
4. The Death 03:16
5. Hidden Reality 01:36
6. S.C.U.M. (Social Cut Up Man) 01:22
7. Hommo Vivisection 01:28
8. Christ Expulsion 01:29
9. Gandhi 01:27
10. Positive Changes 01:30
11. Criminal Traffic 02:28
12. Deceived (Extreme Noise Terror cover) 02:36
13. Victim Of Stress 00:13
14. Is It The Way? 01:36
15. Happy Song 01:34
16. Necrosystem 01:48
17. Hecatomb 01:03
18. Concentration Nazi Field 02:27
******************************
Total playing time: 30:44

Technical info
(IMG:http://metalarea.org/images/spectrogram/2018_Jun/80cb2510ec4e07d5512ed8ef10864770.png)
Input File: 01-Courage For Peace.mp3
Channels : 2
Sample Rate : 44100
Precision : 16-bit
Duration : 00:01:09.14 = 3048942 samples = 5185.28 CDDA sectors
File Size : 1.39M
Bit Rate : 161k
Sample Encoding: MPEG audio (layer I, II or III)
Comments :
Title=Courage for peace
Artist=Putrid Scum
Genre=Grindcore



Register


Go to the top of the page
  Insert nick Quick quote
+Quote Post

Reply to this topicStart new topic
2 User(s) are reading this topic (2 Guests and 0 Anonymous Users)
0 Members:

 



- Lo-Fi Version Support form
Copyrights and abuse reports form
Time is now: 20th June 2018 - 13:51:52