Welcome Guest ( Log In | Register )

> И неформату есть предел.

Рэп/хип-хоп/шансон/поп удаляются. Для них есть свои порталы.

> Robin Beck - Trouble Or Nothin' (1989), Rock
post Jun 2 2018, 12:54:06
Post #1

MDM-Thrash Metal
**************
Group: Металариец
Posts: 6,808
Releases: 412
From: Одесса
On Forums: 10 years 10 months
Thanks: 12973 time(s)
Ukraine


(IMG:http://metalarea.org/images/audiocovers/2018_Jun/acov_tid306709_thumb.jpg)

*Artist: Robin Beck
*Album: Trouble Or Nothin'
*Year: 1989
*Genre: Rock
*Country: United States (IMG:http://metalarea.org/forum/style_images/flags/United%20States.png)
*Format: mp3@CBR320kbps
*Size: 91MB

Tracklist:
01. Hide Your Heart 4:03
02. Don't Lose Any Sleep 4:06
03. If You Were A Woman (And I Was A Man) 4:03
04. Hold Back The Night 3:37
05. Save Up All Your Tears 4:05
06. In A Crazy World Like This 3:56
07. Tears In The Rain 4:41
08. A Heart For You 4:11
09. Sleeping With The Enemy 3:35
10. First Time 3:18
******************************
Total playing time: 39:35

Extended info
Шикарный Альбом! Хит На Хите!






Technical info
(IMG:http://metalarea.org/images/spectrogram/2018_Jun/262d5c53e0fdaf661b811638edd8e38f.png)
Input File: 01_robin_beck_hide_your_heart.mp3
Channels : 2
Sample Rate : 44100
Precision : 16-bit
Duration : 00:04:05.32 = 10818568 samples = 18398.9 CDDA sectors
File Size : 9.81M
Bit Rate : 320k
Sample Encoding: MPEG audio (layer I, II or III)
Comments :
Title=Hide Your Heart
Artist=Robin Beck
Album=Trouble Or Nothin'
Tracknumber=1
Year=1989
Genre=17



Register


Thanks:
Go to the top of the page
  Insert nick Quick quote
+Quote Post
 
Start new topic
Replies (1 - 7)
post Jun 3 2018, 16:17:56
Post #2

MDM-Thrash Metal
**************
Group: Металариец
Posts: 6,808
Releases: 412
From: Одесса
On Forums: 10 years 10 months
Thanks: 12973 time(s)
Ukraine


Register
Go to the top of the page
  Insert nick Quick quote
+Quote Post
post Jun 7 2018, 14:03:29
Post #3

South Of Heaven /адепт ВУДУ
**************
Group: Металариец
Posts: 12,540
Releases: 7
From: Санкт-Петербург
On Forums: 8 years 2 months
Thanks: 4506 time(s)
Russian Federation


Да, душевнолампово, глянул, а у ней с десяток альбомов, есть ещё что-то похожее или этот есть единственный и не повторимый?
Go to the top of the page
  Insert nick Quick quote
+Quote Post
post Jun 8 2018, 07:19:08
Post #4

MDM-Thrash Metal
**************
Group: Металариец
Posts: 6,808
Releases: 412
From: Одесса
On Forums: 10 years 10 months
Thanks: 12973 time(s)
Ukraine


Тезка, ты знаешь, в свое время переслушал все ее альбомы и этот самый классный. Он ровный, хитовый и наиболее приближенный к хеви.
Go to the top of the page
  Insert nick Quick quote
+Quote Post
post Jun 8 2018, 07:25:59
Post #5

South Of Heaven /адепт ВУДУ
**************
Group: Металариец
Posts: 12,540
Releases: 7
From: Санкт-Петербург
On Forums: 8 years 2 months
Thanks: 4506 time(s)
Russian Federation


ЦИТАТА(Andrew @ Jun 8 2018, 09:19:08) *
Тезка, ты знаешь, в свое время переслушал все ее альбомы и этот самый классный. Он ровный, хитовый и наиболее приближенный к хеви.

Начал слушать 2007 Livin' On A Dream, начало вроде ничего так.

А ещё у ней вот такой вариант есть 2009 Trouble Or Nothing(20th Anniversary Edition), и это типа, как говорят, не просто повтор + бонусы, а как бы вновь переписанные и переделанные, но я пока не слушал.
Go to the top of the page
  Insert nick Quick quote
+Quote Post
post Jun 8 2018, 09:52:28
Post #6

South Of Heaven /адепт ВУДУ
**************
Group: Металариец
Posts: 12,540
Releases: 7
From: Санкт-Петербург
On Forums: 8 years 2 months
Thanks: 4506 time(s)
Russian Federation


2013 Underneath - вот этот ещё нормуль, но уступает конечно этому.

2009 Trouble Or Nothing(20th Anniversary Edition) - гуд!
Go to the top of the page
  Insert nick Quick quote
+Quote Post
post Jun 9 2018, 19:00:31
Post #7

MDM-Thrash Metal
**************
Group: Металариец
Posts: 6,808
Releases: 412
From: Одесса
On Forums: 10 years 10 months
Thanks: 12973 time(s)
Ukraine


Я в свое время все прослушал - этот самый шикарный!
Go to the top of the page
  Insert nick Quick quote
+Quote Post
post Jun 13 2018, 12:23:51
Post #8

Правь статус, ####!111
**************
Group: Металариец
Posts: 32,312
Releases: 486
On Forums: 9 years 2 weeks
Thanks: 24725 time(s)
Russian Federation


Отличный АОР, подтверждаю!
Go to the top of the page
  Insert nick Quick quote
+Quote Post

Reply to this topicStart new topic
1 User(s) are reading this topic (1 Guests and 0 Anonymous Users)
0 Members:

 



- Lo-Fi Version Support form
Copyrights and abuse reports form
Time is now: 23rd June 2018 - 03:43:03