Welcome Guest ( Log In | Register )

 
Reply to this topicStart new topic
> Valorem - Sozinho No Escuro (2013), Symphonic Gothic Metal
post Jun 3 2018, 15:27:13
Post #1

Добрый десептикон
******
Group: Металариец
Posts: 503
Releases: 384
On Forums: 10 years 6 months
Thanks: 3959 time(s)
Russian Federation


(IMG:http://metalarea.org/images/audiocovers/2018_Jun/acov_tid306728_thumb.jpg)

*Artist: Valorem
*Album: Sozinho No Escuro
*Year: 2013
*Genre: Symphonic Gothic Metal
*Country: Brazil (IMG:http://metalarea.org/forum/style_images/flags/Brazil.png)
*Format: mp3@CBR192kbps
*Size: 53MB

Tracklist:
1. Antebellum
2. Caçadores
3. Temporal
4. Caminho de Deus
5. Na escuridão
6. Sozinho no Escuro
7. Rosas Vermelhas
8. Apocalipse
9. A-C-O-R-D-A
10. Desejo (balada)
******************************
Total playing time: 38:49




Technical info
(IMG:http://metalarea.org/images/spectrogram/2018_Jun/6cfe523838b31172ba9b8a6ed62b8d61.png)
Input File: 02 Casadores.mp3
Channels : 2
Sample Rate : 44100
Precision : 16-bit
Duration : 00:03:40.85 = 9739441 samples = 16563.7 CDDA sectors
File Size : 5.30M
Bit Rate : 192k
Sample Encoding: MPEG audio (layer I, II or III)
Comments :
Title=Caçadores
Artist=Valorem
Album=Sozinho no Escuro
Tracknumber=2
Year=2013



Register


Thanks:
Go to the top of the page
  Insert nick Quick quote
+Quote Post

Reply to this topicStart new topic
1 User(s) are reading this topic (1 Guests and 0 Anonymous Users)
0 Members:

 



- Lo-Fi Version Support form
Copyrights and abuse reports form
Time is now: 14th August 2018 - 09:22:54