Welcome Guest ( Log In | Register )

 
Reply to this topicStart new topic
> Abaddon - Ensayo [demo] (1993), Death Metal (D27)
post Jun 3 2018, 18:25:50
Post #1

Два Литра
**
Group: Завсегдатай
Posts: 145
Releases: 4
On Forums: 7 months 6 days
Thanks: 90 time(s)
Brazil


(IMG:https://metalarea.org/images/audiocovers/2018_Jun/acov_tid306734_thumb.png)

*Artist: Abaddon
*Album: Ensayo [demo]
*Year: 1993
*Genre: Death Metal
*Country: Colombia (IMG:https://metalarea.org/forum/style_images/flags/Colombia.png)
*Format: mp3@VBR228kbps
*Size: 43MB

Tracklist:
01. Cisma
02. Day of Suffering (Morbid Angel)
03. Instrumental
04. Ilusión Ancestral
05. Almas Hipnotizadas & El Fin del Mortal
06. Siege of Power
07. Pure Hate (Merciless)
******************************
Total playing time: 26:15


Technical info
(IMG:http://metalarea.org/images/spectrogram/2018_Jun/a05ac81dce92bbf7f48aecabd387df70.png)
Input File: 02 - Day of Suffering (Morbid Angel)mp3.mp3
Channels : 2
Sample Rate : 48000
Precision : 16-bit
Duration : 00:01:34.70 = 4545792 samples ~ 7102.8 CDDA sectors
File Size : 2.76M
Bit Rate : 233k
Sample Encoding: MPEG audio (layer I, II or III)
Comment : 'Genre=Other'



Register


This post has been edited by Borderline1991: Jun 3 2018, 18:49:13


Go to the top of the page
  Insert nick Quick quote
+Quote Post

Reply to this topicStart new topic
1 User(s) are reading this topic (1 Guests and 0 Anonymous Users)
0 Members:

 



- Lo-Fi Version Support form
Copyrights and abuse reports form
Time is now: 21st June 2018 - 09:24:34