Welcome Guest ( Log In | Register )

> Caibalion - Live To The Battle Of Armageddon [demo] (2000), Black Metal
post Jun 3 2018, 19:54:36
Post #1

Три Литра
***
Group: Завсегдатай
Posts: 262
Releases: 19
On Forums: 11 months 2 days
Thanks: 413 time(s)
Brazil


(IMG:https://metalarea.org/images/audiocovers/2018_Jun/acov_tid306737.gif)

*Artist: Caibalion
*Album: Live To The Battle Of Armageddon [demo]
*Year: 2000
*Genre: Black Metal
*Country: Brazil (IMG:https://metalarea.org/forum/style_images/flags/Brazil.png)
*Format: mp3@CBR128kbps (IMG:https://metalarea.org/images/bit_low.gif)
*Size: 38MB

Tracklist:
01. Intro
02. In the Glory of My Lord
03. Praise
04. Storming
05. Intro
06. Ready to Slaughter
07. Succubus
08. Might Evil Penis
09. Infiltration of Poison in My Vein
10. Revenge
11. Sonic Wave (D. D. D. Cover)
12. Death Crush (Mayhem Cover)
13. Massacra (Hellhammer Cover)
14. Oh, Satanas
15. Outro
******************************
Total playing time: 40:20

Technical info
(IMG:https://metalarea.org/images/spectrogram/2018_Jun/1de0bfa5362ea38f5361d069caba60d4.png)
Input File: 02 - In the Glory of My Lord.mp3
Channels : 2
Sample Rate : 44100
Precision : 16-bit
Duration : 00:05:18.53 = 14047041 samples = 23889.5 CDDA sectors
File Size : 5.09M
Bit Rate : 128k
Sample Encoding: MPEG audio (layer I, II or III)



Register


Go to the top of the page
  Insert nick Quick quote
+Quote Post
 
Start new topic
Replies (1 - 1)
post Jun 4 2018, 00:33:48
Post #2

Маньяк
**********
Group: Металариец
Posts: 1,096
Releases: 23
On Forums: 11 months 2 weeks
Thanks: 2189 time(s)
Unknown




это вот эти парни Osculum Obscenum - Body Hurting Art (2003) насколько я помню молотилка та ещё.
Go to the top of the page
  Insert nick Quick quote
+Quote Post

Reply to this topicStart new topic
1 User(s) are reading this topic (1 Guests and 0 Anonymous Users)
0 Members:

 



- Lo-Fi Version Support form
Copyrights and abuse reports form
Time is now: 17th October 2018 - 07:18:20