Welcome Guest ( Log In | Register )

 
Reply to this topicStart new topic
> Caibalion - Kali​-​Yuga [demo] (1997), Black Metal
post Jun 3 2018, 22:00:56
Post #1

Три Литра
***
Group: Завсегдатай
Posts: 245
Releases: 18
On Forums: 8 months 4 weeks
Thanks: 309 time(s)
Brazil


(IMG:https://metalarea.org/images/audiocovers/2018_Jun/acov_tid306739.jpg)

*Artist: Caibalion
*Album: Kali​-​Yuga [demo]
*Year: 1997
*Genre: Black Metal
*Country: Brazil (IMG:https://metalarea.org/forum/style_images/flags/Brazil.png)
*Format: mp3@CBR128kbps (IMG:https://metalarea.org/images/bit_low.gif)
*Size: 19MB

Tracklist:
01. Ready to Slaughter
02. Succubus
03. Might Evil Penis
04. Infiltration of Poison in My Vein
05. The Mist from Revenge
06. The Praise (Oh, Satanas)
07. The Battle of Armageddon
08. Total Perversion
******************************
Total playing time: 20:57

Technical info
(IMG:https://metalarea.org/images/spectrogram/2018_Jun/3fbaa5a610570c6b164e9902c1a346d7.png)
Input File: 2 - Succubus.mp3
Channels : 2
Sample Rate : 44100
Precision : 16-bit
Duration : 00:01:28.46 = 3900998 samples = 6634.35 CDDA sectors
File Size : 1.41M
Bit Rate : 128k
Sample Encoding: MPEG audio (layer I, II or III)



Register


Go to the top of the page
  Insert nick Quick quote
+Quote Post

Reply to this topicStart new topic
1 User(s) are reading this topic (1 Guests and 0 Anonymous Users)
0 Members:

 



- Lo-Fi Version Support form
Copyrights and abuse reports form
Time is now: 14th August 2018 - 09:23:25