Welcome Guest ( Log In | Register )

> И неформату есть предел.

Рэп/хип-хоп/шансон/поп удаляются. Для них есть свои порталы.

 
Reply to this topicStart new topic
> Weekend Nachos - Black Earth [ep] (2011), Powerviolence/Sludge Metal (D6)
post Jun 4 2018, 05:27:44
Post #1

antithesis
**************
Group: Металариец
Posts: 2,346
Releases: 29
From: VRN
On Forums: 8 years 4 months
Thanks: 1235 time(s)
Russian Federation


(IMG:https://metalarea.org/images/audiocovers/2018_Jun/acov_tid306741_thumb.jpg)

*Artist: Weekend Nachos
*Album: Black Earth [ep]
*Year: 2011
*Genre: Powerviolence/Sludge Metal
*Country: United States (IMG:https://metalarea.org/forum/style_images/flags/United%20States.png)
*Format: mp3@CBR192kbps
*Size: 7MB

Tracklist:
1. Black Earth 01:34
2. Friendship 00:37
3. Priorities 01:25
4. No Saints 01:31
******************************
Total playing time: 5:07

(IMG:https://metalarea.org/images/youtube.png)

Technical info
(IMG:https://metalarea.org/images/spectrogram/2018_Jun/5880c5d8812200090b21094bbd9205b7.png)
Input File: 02. Friendship.mp3
Channels : 2
Sample Rate : 44100
Precision : 16-bit
Duration : 00:00:42.41 = 1870325 samples = 3180.82 CDDA sectors
File Size : 1.07M
Bit Rate : 202k
Sample Encoding: MPEG audio (layer I, II or III)
Comments :
Title=Friendship
Artist=Weekend Nachos
Album=Black Earth (EP)
Tracknumber=2
Year=2011
Genre=Hardcore Punk \ Powerviolence \ Grindcore



Register


Thanks:
(1) Ostinato,
Go to the top of the page
  Insert nick Quick quote
+Quote Post

Reply to this topicStart new topic
2 User(s) are reading this topic (2 Guests and 0 Anonymous Users)
0 Members:

 



- Lo-Fi Version Support form
Copyrights and abuse reports form
Time is now: 16th October 2018 - 06:29:55