Welcome Guest ( Log In | Register )

> И неформату есть предел.

Рэп/хип-хоп/шансон/поп удаляются. Для них есть свои порталы.

 
Reply to this topicStart new topic
> Weekend Nachos - Watch You Suffer [single] (2013), Powerviolence/Sludge Metal (D6)
post Jun 4 2018, 05:33:28
Post #1

antithesis
**************
Group: Металариец
Posts: 2,346
Releases: 29
From: VRN
On Forums: 8 years 4 months
Thanks: 1235 time(s)
Russian Federation


(IMG:https://metalarea.org/images/audiocovers/2018_Jun/acov_tid306742_thumb.jpg)

*Artist: Weekend Nachos
*Album: Watch You Suffer [single]
*Year: 2013
*Genre: Powerviolence/Sludge Metal
*Country: United States (IMG:https://metalarea.org/forum/style_images/flags/United%20States.png)
*Format: mp3@CBR320kbps
*Size: 14MB

Tracklist:
1. Watch You Suffer 03:35
2. That Life of Yours 02:35
******************************
Total playing time: 6:10

(IMG:https://metalarea.org/images/youtube.png)

Technical info
(IMG:https://metalarea.org/images/spectrogram/2018_Jun/da6e559777643be2e52c4653068b123f.png)
Input File: 01. Watch You Suffer.mp3
Channels : 2
Sample Rate : 44100
Precision : 16-bit
Duration : 00:03:34.62 = 9464698 samples = 16096.4 CDDA sectors
File Size : 8.61M
Bit Rate : 321k
Sample Encoding: MPEG audio (layer I, II or III)
Comments :
Title=Watch You Suffer
Artist=Weekend Nachos
Album=Watch You Suffer
Tracknumber=1
Year=2013
Genre=Hardcore Punk \ Powerviolence \ Grindcore



Register


Thanks:
(1) Ostinato,
Go to the top of the page
  Insert nick Quick quote
+Quote Post

Reply to this topicStart new topic
2 User(s) are reading this topic (2 Guests and 0 Anonymous Users)
0 Members:

 



- Lo-Fi Version Support form
Copyrights and abuse reports form
Time is now: 16th October 2018 - 07:34:36