Welcome Guest ( Log In | Register )

> Правила / Rules

Тут только для чтения лежат низкобитрейтные (<192kbps) релизы, для которых есть аналоги в высокобитрейтных форумах.

Here goes (and stand in read only mode) low bitrate releases (<192kbps) which were already replaced by high bitrate releases in corresponding forums.

Причина закрытия (Borderline1991 03-07-2018): Kinetik - Critical Fallout (2018)
 
Closed TopicStart new topic
> Kinetik - Critical Fallout (2018), Old School Thrash Metal (D5)
post Jun 4 2018, 15:54:26
Post #1

Правь статус, ####!111
**************
Group: Металариец
Posts: 14,320
Releases: 9928
From: Г.Харьков
On Forums: 6 years 4 months
Thanks: 162955 time(s)
Unknown


(IMG:https://metalarea.org/images/audiocovers/2018_Jun/acov_tid306759_thumb.jpg)

*Artist: Kinetik
*Album: Critical Fallout
*Year: 2018
*Genre: Old School Thrash Metal
*Country: Italy (IMG:https://metalarea.org/forum/style_images/flags/Italy.png)
*Format: mp3@CBR192kbps
*Size: 61MB

Tracklist:
01. Out Of The Shelter
02. Blood For Money
03. Dystopia
04. Greed
05. Revenge
06. Abyss Of Humanity
07. Face Your Dark Side
08. Conspiracy Theory
09. Warped
10. Fallout
11. Eymerich
******************************
Total playing time: 44:36



Extended info
В Лоу
Niccolò (Drums)
Giacomo (Bass)
Roberto (Vocals)
Massimo (Guitar)
Alessio (Guitar)



Technical info
(IMG:https://metalarea.org/images/spectrogram/2018_Jun/266a0fc8f0334fd9eb451cde95080c67.png)
Input File: 03 - Dystopia.mp3
Channels : 2
Sample Rate : 44100
Precision : 16-bit
Duration : 00:04:17.48 = 11354780 samples = 19310.9 CDDA sectors
File Size : 6.18M
Bit Rate : 192k
Sample Encoding: MPEG audio (layer I, II or III)
Comments :
Title=Dystopia
Artist=Kinetik
Album=Critical Fallout
Tracknumber=3
Year=2018
Genre=Thrash Metal



Register


Go to the top of the page
  Insert nick Quick quote
+Quote Post

Причина закрытия (Borderline1991 03-07-2018): Kinetik - Critical Fallout (2018)
Closed TopicStart new topic
2 User(s) are reading this topic (2 Guests and 0 Anonymous Users)
0 Members:

 



- Lo-Fi Version Support form
Copyrights and abuse reports form
Time is now: 24th September 2018 - 21:26:17