Welcome Guest ( Log In | Register )

> И неформату есть предел.

Рэп/хип-хоп/шансон/поп удаляются. Для них есть свои порталы.

 
Reply to this topicStart new topic
> Rhys Fulber - Your Dystopia, My Utopia (2018), Techno/EBM/Industrial
post Jun 4 2018, 17:25:03
Post #1

sequensolog
***********
Group: Металариец
Posts: 1,516
Releases: 18
From: Ставрополь
On Forums: 8 months 4 weeks
Thanks: 653 time(s)
Russian Federation


(IMG:https://metalarea.org/images/audiocovers/2018_Jun/acov_tid306766_thumb.jpg)

*Artist: Rhys Fulber
*Album: Your Dystopia, My Utopia
*Year: 2018
*Genre: Techno/EBM/Industrial
*Country: Canada (IMG:https://metalarea.org/forum/style_images/flags/Canada.png)
*Format: mp3@CBR320kbps
*Size: 136MB

Tracklist:
1. Cognitivia (05:40)
2. Limited Vision (07:20)
3. Inhabits Eternity (07:12)
4. Creosote (06:52)
5. Anhedonia (06:39)
6. Truncheon (05:35)
7. My Church (07:47)
8. The Sick (06:16)
9. You Can Kill Them Or You Can Feed Them (06:21)
******************************
Total playing time: 59:42



Technical info
(IMG:https://metalarea.org/images/spectrogram/2018_Jun/45a98fc1e6ebfbaa0f21d7c5fb081cc4.png)
Input File: 02 - Limited Vision.mp3
Channels : 2
Sample Rate : 44100
Precision : 16-bit
Duration : 00:07:20.52 = 19426976 samples = 33039.1 CDDA sectors
File Size : 17.6M
Bit Rate : 320k
Sample Encoding: MPEG audio (layer I, II or III)
Comments :
Title=Limited Vision
Artist=Rhys Fulber
Album=Your Dystopia, My Utopia
Tracknumber=02
Year=2018



Register


Go to the top of the page
  Insert nick Quick quote
+Quote Post

Reply to this topicStart new topic
1 User(s) are reading this topic (1 Guests and 0 Anonymous Users)
0 Members:

 



- Lo-Fi Version Support form
Copyrights and abuse reports form
Time is now: 20th October 2018 - 08:21:21