Welcome Guest ( Log In | Register )

 
Reply to this topicStart new topic
> Scalpel - Methods To Delusion (2017), Death Metal/Grindcore
post Jun 4 2018, 17:52:24
Post #1

Маньяк
**********
Group: Металариец
Posts: 1,329
Releases: 1120
From: Одесса
On Forums: 10 years 2 months
Thanks: 8593 time(s)
Ukraine


(IMG:http://metalarea.org/images/audiocovers/2018_Jun/acov_tid306769_thumb.jpg)

*Artist: Scalpel
*Album: Methods To Delusion
*Year: 2017
*Genre: Death Metal/Grindcore
*Country: United States (IMG:http://metalarea.org/forum/style_images/flags/United%20States.png)
*Format: mp3@CBR128kbps (IMG:http://metalarea.org/images/bit_low.gif)
*Size: 28MB

Tracklist:
1. The Cleaner 02:35
2. Labors of Loathing 02:40
3. The Stink 03:04
4. Feeding the Worm 03:36
5. Interdelude 01:27
6. Methods to Delusion 02:50
7. The Woodsman Part II 02:45
8. Brooding in the Gloom 03:16
9. Lung Butter 03:26
10. Intensified Festering 03:47
******************************
Total playing time: 29:26



Extended info
Line - up:

Poh Hok - Bass
Chip Fay - Drums (Destruction from Within)
Taylor Brennan - Guitars, Vocals
Manny Egbert - Guitars, Vocals (Angor)

(IMG:https://www.metal-archives.com/images/3/5/4/0/3540272961_photo.jpg?0332)


Technical info
(IMG:http://metalarea.org/images/spectrogram/2018_Jun/2b63297de9191f8d31745470c5010b47.png)
Input File: 04 - Feeding the Worm.mp3
Channels : 2
Sample Rate : 44100
Precision : 16-bit
Duration : 00:03:36.20 = 9534464 samples = 16215.1 CDDA sectors
File Size : 3.54M
Bit Rate : 131k
Sample Encoding: MPEG audio (layer I, II or III)
Comments :
Title=Feeding the Worm
Artist=Scalpel
Album=Methods To Delusion
Tracknumber=04
Year=2017
Genre=Death Metal / Grindcore



Register


Thanks:
Go to the top of the page
  Insert nick Quick quote
+Quote Post

Reply to this topicStart new topic
1 User(s) are reading this topic (1 Guests and 0 Anonymous Users)
0 Members:

 



- Lo-Fi Version Support form
Copyrights and abuse reports form
Time is now: 14th August 2018 - 09:23:54