Welcome Guest ( Log In | Register )

> И неформату есть предел.

Рэп/хип-хоп/шансон/поп удаляются. Для них есть свои порталы.

 
Reply to this topicStart new topic
> Weekend Nachos - Torture [ep] (2005), Powerviolence/Sludge Metal (D6)
post Jun 4 2018, 19:29:42
Post #1

antithesis
**************
Group: Металариец
Posts: 2,169
Releases: 27
From: VRN
On Forums: 8 years 1 month
Thanks: 1128 time(s)
Russian Federation


(IMG:https://metalarea.org/images/audiocovers/2018_Jun/acov_tid306772_thumb.jpg)

*Artist: Weekend Nachos
*Album: Torture [ep]
*Year: 2005
*Genre: Powerviolence/Sludge Metal
*Country: United States (IMG:https://metalarea.org/forum/style_images/flags/United%20States.png)
*Format: mp3@CBR192kbps
*Size: 17MB

Tracklist:
1. Intro / End of Your Faith 01:50
2. Snowball Fight 00:21
3. I Am Not the Wedding Singer 00:11
4. Torture 00:49
5. Fashioncore '88 00:24
6. Utopia 00:12
7. Necrolepsy 00:49
8. Scared of Naked Men 00:50
9. Equal Rights 00:36
10. 10 Things I Hate About You 00:38
11. Dimension X 00:38
12. Sweatpants 00:21
13. Image 00:24
14. 4 Years 00:08
15. American Hardcore 00:23
16. Jocks from the Inside Out 00:39
17. Sludge 02:06
******************************
Total playing time: 11:19

(IMG:https://metalarea.org/images/youtube.png)

Technical info
(IMG:https://metalarea.org/images/spectrogram/2018_Jun/0f82f8c03d70f6c41368250055989c1c.png)
Input File: 04. Torture.mp3
Channels : 1
Sample Rate : 44100
Precision : 16-bit
Duration : 00:00:50.01 = 2205265 samples = 3750.45 CDDA sectors
File Size : 1.27M
Bit Rate : 203k
Sample Encoding: MPEG audio (layer I, II or III)
Comments :
Title=Torture
Artist=Weekend Nachos
Album=Torture (EP)
Tracknumber=4/17
Year=2005
Genre=Hardcore Punk \ Powerviolence \ Grindcore



Register


Thanks:
(1) Ostinato,
Go to the top of the page
  Insert nick Quick quote
+Quote Post

Reply to this topicStart new topic
2 User(s) are reading this topic (2 Guests and 0 Anonymous Users)
0 Members:

 



- Lo-Fi Version Support form
Copyrights and abuse reports form
Time is now: 23rd June 2018 - 18:24:14