Welcome Guest ( Log In | Register )

> И неформату есть предел.

Рэп/хип-хоп/шансон/поп удаляются. Для них есть свои порталы.

> Banco Del Mutuo Soccorso - Banco Del Mutuo Soccorso (1972), Progressive Rock
post Jun 4 2018, 22:33:29
Post #1


**********
Group: Металариец
Posts: 1,033
Releases: 186
From: Подмосковье
On Forums: 9 years 3 weeks
Thanks: 2753 time(s)
Russian Federation


(IMG:http://metalarea.org/images/audiocovers/2018_Jun/acov_tid306774_thumb.jpg)

*Artist: Banco Del Mutuo Soccorso
*Album: Banco Del Mutuo Soccorso
*Year: 1972
*Genre: Progressive Rock
*Country: Italy (IMG:http://metalarea.org/forum/style_images/flags/Italy.png)
*Format: mp3@CBR320kbps
*Size: 93MB

Tracklist:
1. In Volo 02:13
2. R.I.P. (Requiescant In Pace) 06:40
3. Passaggio 01:19
4. Metamorfosi 10:52
5. Il Giardino Del Mago 18:26
- a) ... Passo Dopo Passo ...
- b) ... Chi Ride E Chi Geme ...
- c) ... Coi Capelli Sciolti Al Vento ...
- d) Compenetrazione
6. Traccia 02:10
******************************
Total playing time: 41:40

(IMG:http://metalarea.org/images/youtube.png)

Extended info
Классика RPI. Разнообразная, красивая, эмоциональная музыка. Особенно удачен второй трек, очень мне нравится.
Line-up / Musicians
- Francesco Di Giacomo / lead vocals
- Marcello Todaro / electric & acoustic guitars, vocals
- Vittorio Nocenzi / organ, harpsichord, clarino (?), recorder, vocals
- Gianni Nocenzi / piano, E-flat clarinet, vocals
- Renato D'Angelo / bass
- Pier Luigi Calderoni / drums, timpani


Technical info
(IMG:http://metalarea.org/images/spectrogram/2018_Jun/5159cb42762105680f87913b36c6d6e3.png)
Input File: 02 R.I.P. (Requiescant In Pace) .mp3
Channels : 2
Sample Rate : 44100
Precision : 16-bit
Duration : 00:06:41.60 = 17710340 samples = 30119.6 CDDA sectors
File Size : 16.1M
Bit Rate : 320k
Sample Encoding: MPEG audio (layer I, II or III)
Comments :
Title=R.I.P. (Requiescant In Pace)
Artist=Banco
Album=Banco Del Mutuo Soccorso
Tracknumber=02
Year=1972
Genre=Progressive Rock



Register


This post has been edited by Borderline1991: Jun 21 2018, 08:57:32


Go to the top of the page
  Insert nick Quick quote
+Quote Post
 
Start new topic
Replies (1 - 5)
post Jun 5 2018, 17:26:03
Post #2

а ты попал в даунтаун
*********
Group: Металариец
Posts: 980
Releases: 46
From: Москва
On Forums: 9 years 3 months
Thanks: 2833 time(s)
Russian Federation


Люблю этот альбом, Metamorfosi - особенно.
Go to the top of the page
  Insert nick Quick quote
+Quote Post
post Jun 5 2018, 18:30:23
Post #3

Forever Underground
**************
Group: Металариец
Posts: 4,734
Releases: 0
On Forums: 3 years 4 months
Thanks: 3840 time(s)
Unknown


Thank you so much!! What version is this? I mean: remastered or not?
Go to the top of the page
  Insert nick Quick quote
+Quote Post
post Jun 5 2018, 20:06:19
Post #4


**********
Group: Металариец
Posts: 1,033
Releases: 186
From: Подмосковье
On Forums: 9 years 3 weeks
Thanks: 2753 time(s)
Russian Federation


It's not remastered.


Thanks:
Go to the top of the page
  Insert nick Quick quote
+Quote Post
post Jun 5 2018, 20:16:42
Post #5


**********
Group: Металариец
Posts: 1,033
Releases: 186
From: Подмосковье
On Forums: 9 years 3 weeks
Thanks: 2753 time(s)
Russian Federation


Раз уж речь зашла о ремастированном издании, то вот оно. На мой слух, весьма так себе...
320
Register


Thanks:
Go to the top of the page
  Insert nick Quick quote
+Quote Post
post Jun 7 2018, 15:49:31
Post #6

Group: Подсевший
Posts: 40
Releases: 3
From: Тула
On Forums: 11 months 2 weeks
Thanks: 146 time(s)
Russian Federation


Отличный альбом! один из самых лучших у них.
Go to the top of the page
  Insert nick Quick quote
+Quote Post

Reply to this topicStart new topic
1 User(s) are reading this topic (1 Guests and 0 Anonymous Users)
0 Members:

 



- Lo-Fi Version Support form
Copyrights and abuse reports form
Time is now: 16th August 2018 - 11:25:01