Welcome Guest ( Log In | Register )

 
Reply to this topicStart new topic
> Diabolous - Infinite Doom (2018), Stoner/Doom Metal
post Jun 5 2018, 11:43:21
Post #1

Serial Uploader
Group Icon
Group: V.I.P
Posts: 32,727
Releases: 31022
From: Lithuania
On Forums: 10 years 1 week
Thanks: 355662 time(s)
Lithuania


(IMG:http://metalarea.org/images/audiocovers/2018_Jun/acov_tid306784_thumb.jpg)

*Artist: Diabolous
*Album: Infinite Doom
*Year: 2018
*Genre: Stoner/Doom Metal
*Country: Mexico (IMG:http://metalarea.org/forum/style_images/flags/Mexico.png)
*Format: mp3@CBR320kbps
*Size: 105MB

Tracklist:
01. Predators 05:17
02. Fucking Visious 07:06
03. Curse Of Death 05:14
04. Judgement Day 05:26
05. Devil´s Work 03:45
06. Call My Name 08:04
07. I Am Darkness 03:18
08. Diabolous 06:00
******************************
Total playing time: 44:10


(IMG:http://metalarea.org/images/youtube.png)

Technical info
(IMG:http://metalarea.org/images/spectrogram/2018_Jun/88b39f43814417a0d2ac1dc16ee8d266.png)
Input File: 02. Fuking Vicious.mp3
Channels : 2
Sample Rate : 44100
Precision : 16-bit
Duration : 00:07:06.83 = 18823247 samples = 32012.3 CDDA sectors
File Size : 17.6M
Bit Rate : 331k
Sample Encoding: MPEG audio (layer I, II or III)
Comments :
Title=Fuking Vicious
Artist=Diabolous
Album=Infinite Doom
Tracknumber=2/8
Year=2018
Genre=Metal
Discnumber=1/1



Register


Go to the top of the page
  Insert nick Quick quote
+Quote Post

Reply to this topicStart new topic
2 User(s) are reading this topic (2 Guests and 0 Anonymous Users)
0 Members:

 



- Lo-Fi Version Support form
Copyrights and abuse reports form
Time is now: 21st June 2018 - 09:29:31