Welcome Guest ( Log In | Register )

 
Reply to this topicStart new topic
> Reforma Protestante - Reforma Protestante [demo] (1992), Crossover/Thrash Metal
post Jun 5 2018, 12:31:35
Post #1

Подвал
**************
Group: Металариец
Posts: 12,436
Releases: 6993
From: Far East (Khabarovsk)
On Forums: 9 years 7 months
Thanks: 64560 time(s)
Russian Federation


(IMG:http://metalarea.org/images/audiocovers/2018_Jun/acov_tid306788_thumb.JPG)

*Artist: Reforma Protestante
*Album: Reforma Protestante [demo]
*Year: 1992
*Genre: Crossover/Thrash Metal
*Country: Brazil (IMG:http://metalarea.org/forum/style_images/flags/Brazil.png)
*Format: mp3@CBR128kbps (IMG:http://metalarea.org/images/bit_low.gif)
*Size: 13MB

Tracklist:
1. Cobaias Da Desgraca 03:49
2. Minutos Sonhados Em Vao 03:52
3. The Fury Of My Thought 03:27
4. Afraid In The Life 03:18
******************************
Total playing time: 14:26

(IMG:http://metalarea.org/images/youtube.png)

Technical info
(IMG:http://metalarea.org/images/spectrogram/2018_Jun/fb2b259cc7a84949949730f396421a7f.png)
Input File: Reforma Protestante 01-Cobaias Da Desgraça.mp3
Channels : 2
Sample Rate : 44100
Precision : 16-bit
Duration : 00:00:59.21 = 2611117 samples = 4440.68 CDDA sectors
File Size : 948k
Bit Rate : 128k
Sample Encoding: MPEG audio (layer I, II or III)
Comments :
Title=Cobaias Da Desgraça
Artist=Reforma Protestante (Bra)
Album=Reforma Protestante (Demo)
Tracknumber=01
Year=1992
Genre=Thrash Metal



Register


Thanks:
Go to the top of the page
  Insert nick Quick quote
+Quote Post

Reply to this topicStart new topic
2 User(s) are reading this topic (2 Guests and 0 Anonymous Users)
0 Members:

 



- Lo-Fi Version Support form
Copyrights and abuse reports form
Time is now: 24th September 2018 - 21:24:23