Welcome Guest ( Log In | Register )

 
Reply to this topicStart new topic
> The Lie - Monopoly [demo] (1998), Thrash/Groove Metal
post Jun 5 2018, 12:59:51
Post #1

Подвал
**************
Group: Металариец
Posts: 12,161
Releases: 6860
From: Far East (Khabarovsk)
On Forums: 9 years 4 months
Thanks: 62608 time(s)
Russian Federation


(IMG:http://metalarea.org/images/audiocovers/2018_Jun/acov_tid306790_thumb.JPG)

*Artist: The Lie
*Album: Monopoly [demo]
*Year: 1998
*Genre: Thrash/Groove Metal
*Country: Germany (IMG:http://metalarea.org/forum/style_images/flags/Germany.png)
*Format: mp3@CBR192kbps
*Size: 28MB

Tracklist:
1. Prinzip 04:22
2. Die Angst 04:05
3. Monopoly 03:29
4. Geh Weg 03:51
5. Lug Und Trug 05:04
******************************
Total playing time: 20:51

Technical info
(IMG:http://metalarea.org/images/spectrogram/2018_Jun/f0718efd822b7bd8cafb7d5a24002881.png)
Input File: The Lie 01-Prinzip.mp3
Channels : 2
Sample Rate : 44100
Precision : 16-bit
Duration : 00:01:05.18 = 2874614 samples = 4888.8 CDDA sectors
File Size : 1.57M
Bit Rate : 192k
Sample Encoding: MPEG audio (layer I, II or III)
Comments :
Title=Prinzip
Artist=The Lie (Ger)
Album=Monopoly (Demo)
Tracknumber=01
Year=1998
Genre=Thrash Metal



Register


Go to the top of the page
  Insert nick Quick quote
+Quote Post

Reply to this topicStart new topic
1 User(s) are reading this topic (1 Guests and 0 Anonymous Users)
0 Members:

 



- Lo-Fi Version Support form
Copyrights and abuse reports form
Time is now: 20th June 2018 - 13:54:40