Welcome Guest ( Log In | Register )

 
Reply to this topicStart new topic
> Desmodus - In Deathlike Dreaming [ep] (1998), Death Metal
post Jun 5 2018, 14:06:19
Post #1

Подвал
**************
Group: Металариец
Posts: 12,303
Releases: 6935
From: Far East (Khabarovsk)
On Forums: 9 years 6 months
Thanks: 63525 time(s)
Russian Federation


(IMG:http://metalarea.org/images/audiocovers/2018_Jun/acov_tid306796_thumb.JPG)

*Artist: Desmodus
*Album: In Deathlike Dreaming [ep]
*Year: 1998
*Genre: Death Metal
*Country: Spain (IMG:http://metalarea.org/forum/style_images/flags/Spain.png)
*Format: mp3@CBR192kbps
*Size: 32MB

Tracklist:
1. Remembrance, I... 04:56
2. Witchaven 04:54
3. Gehenna: The Second Coming 04:20
4. Haunter Of The Dark 04:44
5. Kadath: Dark And Fallen Empires 05:28
******************************
Total playing time: 24:22

Extended info
Manufactured under license of Repulse Records.
Recorded and mixed on Transgenika Prod. during autumn, 1997.


Technical info
(IMG:http://metalarea.org/images/spectrogram/2018_Jun/b2db85e54617a253cabf2a9e3a7b9c36.png)
Input File: Desmodus - 01-Remembrance, I....mp3
Channels : 2
Sample Rate : 44100
Precision : 16-bit
Duration : 00:01:03.49 = 2799733 samples = 4761.45 CDDA sectors
File Size : 1.52M
Bit Rate : 192k
Sample Encoding: MPEG audio (layer I, II or III)
Comments :
Title=Remembrance, I...
Artist=Desmodus
Album=In Deathlike Dreaming (EP)
Tracknumber=01
Year=1998
Genre=Death Metal



Register


Go to the top of the page
  Insert nick Quick quote
+Quote Post

Reply to this topicStart new topic
1 User(s) are reading this topic (1 Guests and 0 Anonymous Users)
0 Members:

 



- Lo-Fi Version Support form
Copyrights and abuse reports form
Time is now: 20th August 2018 - 23:55:22