Welcome Guest ( Log In | Register )

 
Reply to this topicStart new topic
> Haimad - A Dream Vision Vanished [demo] (1995), Melodic Black Metal
post Jun 5 2018, 14:52:30
Post #1

but I'm white and furry
**********
Group: Металариец
Posts: 1,071
Releases: 380
From: Москва
On Forums: 12 years 4 months
Thanks: 4617 time(s)
Russian Federation


(IMG:https://metalarea.org/images/audiocovers/2018_Jun/acov_tid306798_thumb.jpg)

*Artist: Haimad
*Album: A Dream Vision Vanished [demo]
*Year: 1995
*Genre: Melodic Black Metal
*Country: Sweden (IMG:https://metalarea.org/forum/style_images/flags/Sweden.png)
*Format: mp3@CBR320kbps
*Size: 31MB

Tracklist:
1. A Dream Vision Vanished 4:14
2. Devote Dispair 3:54
3. Path of The Damned Legions 2:43
4. Spiraling of The Winter Ghost 4:12
******************************
Total playing time: 15:03

Preview 1
Preview 2

Technical info
(IMG:https://metalarea.org/images/spectrogram/2018_Jun/bac2a91388f009624bffe5456e087aa0.png)
Input File: 01 - A Dream Vision Vanished.mp3
Channels : 2
Sample Rate : 44100
Precision : 16-bit
Duration : 00:04:14.20 = 11210132 samples = 19064.9 CDDA sectors
File Size : 10.2M
Bit Rate : 320k
Sample Encoding: MPEG audio (layer I, II or III)
Comments :
Title=A Dream Vision Vanished
Artist=Haimad
Album=A Dream Vision Vanished
Tracknumber=1
Year=1995
Genre=Black Metal
Discnumber=1



Register


Go to the top of the page
  Insert nick Quick quote
+Quote Post

Reply to this topicStart new topic
1 User(s) are reading this topic (1 Guests and 0 Anonymous Users)
0 Members:

 



- Lo-Fi Version Support form
Copyrights and abuse reports form
Time is now: 21st June 2018 - 09:25:44