Welcome Guest ( Log In | Register )

> Gaupa - Gaupa [ep] (2018), Heavy/Stoner/Doom Metal
post Jun 5 2018, 15:32:55
Post #1

Правь статус, ####!111
**************
Group: Металариец
Posts: 47,736
Releases: 757
On Forums: 11 years 6 months
Thanks: 41168 time(s)
Russian Federation


(IMG:http://metalarea.org/images/audiocovers/2018_Jun/acov_tid306800_thumb.jpg)

*Artist: Gaupa
*Album: Gaupa [ep]
*Year: 2018
*Genre: Heavy/Stoner/Doom Metal
*Country: Sweden (IMG:http://metalarea.org/forum/style_images/flags/Sweden.png)
*Format: mp3@CBR320kbps
*Size: 64MB

Tracklist:
01. Febersvan 07:27
02. The Drunk Autopussy Wants To Fight You 03:04
03. Kartan 05:54
04. Gryt 04:08
05. Bergatroll 07:29
******************************
Total playing time: 28:02

Preview 1

Technical info
(IMG:http://metalarea.org/images/spectrogram/2018_Jun/422314951c93ef63af6a55ba54b6c055.png)
Input File: 01 Febersvan.mp3
Channels : 2
Sample Rate : 44100
Precision : 16-bit
Duration : 00:07:27.81 = 19748245 samples = 33585.5 CDDA sectors
File Size : 18.2M
Bit Rate : 326k
Sample Encoding: MPEG audio (layer I, II or III)
Comments :
Title=Febersvan
Artist=Gaupa
Album=GAUPA
Tracknumber=1
Year=2018
Genre= Rock



Register


Go to the top of the page
  Insert nick Quick quote
+Quote Post
 
Start new topic
Replies (1 - 3)
post Jun 5 2018, 16:25:18
Post #2

Правь статус, ####!111
**************
Group: Металариец
Posts: 47,736
Releases: 757
On Forums: 11 years 6 months
Thanks: 41168 time(s)
Russian Federation


@320

Register


Go to the top of the page
  Insert nick Quick quote
+Quote Post
post Oct 16 2020, 19:05:29
Post #3

Литр
*
Group: Подсевший
Posts: 63
Releases: 0
On Forums: 11 years 5 months
Thanks: 3 time(s)
Russian Federation


Re-up. (IMG:style_emoticons/default/dooo.gif)
Go to the top of the page
  Insert nick Quick quote
+Quote Post
post Oct 18 2020, 09:59:20
Post #4

Group Icon
Group: S-moderation team
Posts: 18,007
Releases: 1441
From: Zagreb
On Forums: 9 years 9 months
Thanks: 82418 time(s)
Croatia


Register


Thanks:
Go to the top of the page
  Insert nick Quick quote
+Quote Post

Reply to this topicStart new topic
1 User(s) are reading this topic (1 Guests and 0 Anonymous Users)
0 Members:

 



- Lo-Fi Version Support form
Copyrights and abuse reports form
Time is now: 4th December 2020 - 14:41:12