Welcome Guest ( Log In | Register )

> И неформату есть предел.

Рэп/хип-хоп/шансон/поп удаляются. Для них есть свои порталы.

> Eliwagar - I Vølven's Vev (2016), Pagan/Folk Rock (D9)
post Jun 7 2018, 11:58:05
Post #1

Serial Uploader
Group Icon
Group: V.I.P
Posts: 33,126
Releases: 31411
From: Lithuania
On Forums: 10 years 4 months
Thanks: 359210 time(s)
Lithuania


(IMG:https://metalarea.org/images/audiocovers/2018_Jun/acov_tid306847_thumb.jpg)

*Artist: Eliwagar
*Album: I Vølven's Vev
*Year: 2016
*Genre: Pagan/Folk Rock
*Country: Norway (IMG:https://metalarea.org/forum/style_images/flags/Norway.png)
*Format: mp3@CBR320kbps
*Size: 101MB

Tracklist:
01. Urdarbrunn 02:32
02. I Vølven's Vev 04:19
03. Lys I Skyggen 04:02
04. Hjertet Av Livstreet 02:53
05. Nordstjernen 05:28
06. Solhjul Bortenfor Nordavind 02:36
07. Vi Høster Som Vi Sår 03:16
08. Vølven's Gravhaug 03:53
09. Sol Og Måne 03:26
10. Almødre Vølur 03:57
11. Njardar's Vogn 04:28
12. I Njardar's Favn 03:30
******************************
Total playing time: 44:20



(IMG:https://metalarea.org/images/youtube.png)

Technical info
(IMG:https://metalarea.org/images/spectrogram/2018_Jun/5cdffdff9952672bbf0282e976b54ff6.png)
Input File: 03. Lys I Skyggen.mp3
Channels : 2
Sample Rate : 44100
Precision : 16-bit
Duration : 00:04:02.10 = 10676566 samples = 18157.4 CDDA sectors
File Size : 9.69M
Bit Rate : 320k
Sample Encoding: MPEG audio (layer I, II or III)
Comments :
Title=Lys I Skyggen
Artist=Eliwagar
Album=I VГёlven's Vev
Tracknumber=3/12
Year=2016



Register


Go to the top of the page
  Insert nick Quick quote
+Quote Post
 
Start new topic
Replies (1 - 1)
post Jun 7 2018, 15:07:39
Post #2

Три Литра
***
Group: Завсегдатай
Posts: 227
Releases: 16
On Forums: 5 years 1 month
Thanks: 558 time(s)
Iceland


And next time please Ambient or Trip Hop in the metal section.
Go to the top of the page
  Insert nick Quick quote
+Quote Post

Reply to this topicStart new topic
1 User(s) are reading this topic (1 Guests and 0 Anonymous Users)
0 Members:

 



- Lo-Fi Version Support form
Copyrights and abuse reports form
Time is now: 17th October 2018 - 21:19:28